<?xml version="1.0" standalone="no"?> <!DOCTYPE svg PUBLIC "-//W3C//DTD SVG 1.0//EN" "http://www.w3.org/TR/2001/REC-SVG-20010904/DTD/svg10.dtd" > <svg xmlns="http://www.w3.org/2000/svg" width="100%" height="100%">
<defs >
<font id="Graphik-Semibold" horiz-adv-x="555" ><font-face
    font-family=""
    units-per-em="1000"
    panose-1="2 11 7 3 3 2 2 6 2 3"
    ascent="822"
    descent="-178"
    alphabetic="0" />
<missing-glyph horiz-adv-x="512" />
<glyph unicode=" " glyph-name="space" horiz-adv-x="222" />
<glyph unicode="!" glyph-name="exclam" horiz-adv-x="328" d="M164 -9Q145 -9 129 -3T100 16Q87 28 80 43T73 77Q73 114 99 139T164 164Q202 164 228 139T255 77Q255 59 248 44T229 16Q216 4 200 -2T164 -9ZM84 715H246L224 223H106L84 715Z" />
<glyph unicode="&quot;" glyph-name="quotedbl" horiz-adv-x="442" d="M54 715H194L175 451H73L54 715ZM248 715H388L370 451H267L248 715Z" />
<glyph unicode="#" glyph-name="numbersign" horiz-adv-x="561" d="M293 256H218L195 99H93L116 256H42V371H133L147 467H67V578H163L184 715H285L265 578H340L361 715H462L441 578H519V467H425L411 371H494V256H394L371 99H270L293 256ZM235 371H310L324 467H249L235
371Z" />
<glyph unicode="$" glyph-name="dollar" horiz-adv-x="652" d="M293 -10Q228 -6 181 13T104 64Q73 94 57 135T38 223H186Q189 201 194 182T212 148Q224 132 243 121T293 106V299Q233 308 189 324T116 367Q87 392 73 428T58 514Q58 557 74 594T122 659Q153 686
196 703T293 724V813H364V723Q467 714 526 663T594 514H451Q444 553 424 576T364 608V429Q420 420 465 406T542 367Q573 342 589 306T606 217Q606 172 591 133T545 63Q514 32 469 13T364 -10V-135H293V-10ZM458 200Q458 236 439 256T364 288V106Q408 114 433 138T458
200ZM202 527Q202 510 206 497T220 473Q230 462 247 455T293 441V610Q248 604 225 582T202 527Z" />
<glyph unicode="%" glyph-name="percent" horiz-adv-x="823" d="M215 461Q247 461 265 483T283 548Q283 588 265 611T215 634Q183 634 164 612T145 548Q145 505 164 483T215 461ZM214 371Q174 371 141 384T84 422Q60 445 47 477T34 547Q34 584 48 616T87 672Q111
695 144 708T215 722Q252 722 285 709T342 673Q366 650 380 619T394 549Q394 511 381 479T343 422Q319 398 286 385T214 371ZM605 715H695L220 0H130L605 715ZM609 80Q642 80 660 102T678 166Q678 207 660 229T609 252Q577 252 559 230T540 166Q540 124 558 102T609
80ZM609 -11Q569 -11 536 2T479 40Q455 63 442 95T429 165Q429 203 443 235T482 291Q506 314 538 327T609 341Q647 341 680 328T737 292Q761 269 775 238T789 168Q789 130 776 97T738 40Q714 16 681 3T609 -11Z" />
<glyph unicode="&amp;" glyph-name="ampersand" horiz-adv-x="746" d="M600 146L719 0H534L482 64Q448 33 402 12T287 -10Q233 -10 188 4T112 46Q80 73 63 111T45 199Q45 273 88 323T204 409Q178 445 166 479T154 544Q154 587 171 620T217 677Q245 699 283 710T364
722Q403 722 438 712T500 681Q527 660 542 630T558 562Q558 501 521 457T412 383L524 246L588 371H716L600 146ZM308 109Q337 109 362 121T407 157L271 322Q239 305 218 281T197 215Q197 167 225 138T308 109ZM295 542Q295 519 307 497T343 447Q388 468 408 492T429
554Q429 582 412 600T366 618Q336 618 316 599T295 542Z" />
<glyph unicode="&apos;" glyph-name="quotesingle" horiz-adv-x="252" d="M54 715H198L179 451H73L54 715Z" />
<glyph unicode="(" glyph-name="parenleft" horiz-adv-x="355" d="M216 -148Q185 -111 155 -65T102 39Q78 96 64 164T49 313Q49 393 63 461T102 587Q125 644 155 690T216 774H335Q307 735 281 687T235 582Q214 525 202 458T190 313Q190 235 202 168T235 44Q255
-13 281 -60T335 -148H216Z" />
<glyph unicode=")" glyph-name="parenright" horiz-adv-x="355" d="M21 -148Q49 -109 75 -61T121 44Q141 101 153 168T165 313Q165 391 153 458T121 582Q101 639 75 686T21 774H140Q171 737 200 691T254 587Q277 530 291 462T306 313Q306 233 292 165T254 39Q230
-18 201 -64T140 -148H21Z" />
<glyph unicode="*" glyph-name="asterisk" horiz-adv-x="446" d="M72 448L159 545L40 564L70 667L182 616L165 743H282L264 616L376 667L406 564L286 545L373 448L284 384L222 501L161 384L72 448Z" />
<glyph unicode="+" glyph-name="plus" horiz-adv-x="563" d="M223 286H43V395H223V590H341V395H521V286H341V91H223V286Z" />
<glyph unicode="," glyph-name="comma" horiz-adv-x="310" d="M29 -86L117 161L253 110L117 -123L29 -86Z" />
<glyph unicode="-" glyph-name="hyphen" horiz-adv-x="376" d="M60 339H316V224H60V339Z" />
<glyph unicode="." glyph-name="period" horiz-adv-x="305" d="M152 -9Q114 -9 89 16T63 79Q63 115 88 140T152 166Q190 166 216 141T242 79Q242 61 235 45T216 17Q204 5 188 -2T152 -9Z" />
<glyph unicode="/" glyph-name="slash" horiz-adv-x="435" d="M300 776H419L111 -148H-7L300 776Z" />
<glyph unicode="0" glyph-name="zero" horiz-adv-x="725" d="M366 116Q442 116 477 173T513 343V375Q513 484 476 542T364 600Q289 600 251 544T213 375V341Q213 228 252 172T366 116ZM362 -11Q291 -11 234 13T136 83Q95 128 73 193T51 340V374Q51 456 74 521T138
632Q179 677 236 701T363 725Q432 725 489 702T588 635Q629 590 651 525T674 377V344Q674 262 653 196T591 84Q550 38 492 14T362 -11Z" />
<glyph unicode="1" glyph-name="one" horiz-adv-x="443" d="M183 555L38 460V598L203 715H345V0H183V555Z" />
<glyph unicode="2" glyph-name="two" horiz-adv-x="605" d="M18 26L280 303Q332 358 362 406T393 504Q393 549 369 575T298 601Q250 601 221 571T184 470H37Q43 595 113 660T305 725Q364 725 410 709T489 665Q520 636 536 596T553 508Q553 437 515 376T415 255L280
123H558V0H18V26Z" />
<glyph unicode="3" glyph-name="three" horiz-adv-x="647" d="M319 -11Q182 -11 113 53T38 227H184Q189 175 218 142T313 108Q374 108 403 135T432 211Q432 263 404 288T317 314H261V422H313Q370 422 396 446T422 517Q422 555 398 580T323 606Q272 606 242 578T205
498H62Q65 547 83 588T136 661Q169 691 217 708T326 725Q385 725 431 711T509 670Q541 644 558 609T575 531Q575 471 543 433T457 376Q520 362 558 320T596 208Q596 107 523 48T319 -11Z" />
<glyph unicode="4" glyph-name="four" horiz-adv-x="668" d="M383 142H32V201L341 715H540V258H634V142H540V0H383V142ZM386 258V593L194 258H386Z" />
<glyph unicode="5" glyph-name="five" horiz-adv-x="627" d="M303 -11Q237 -11 189 6T108 53Q75 83 58 124T38 213H187Q190 190 197 172T217 141Q230 127 250 120T302 113Q357 113 385 148T414 240Q414 298 383 331T298 365Q247 365 215 349T161 308H71L81 715H534V592H202L199
413Q220 439 258 459T358 479Q407 479 447 463T516 416Q545 385 561 340T577 238Q577 181 558 135T502 57Q466 24 416 7T303 -11Z" />
<glyph unicode="6" glyph-name="six" horiz-adv-x="666" d="M345 -11Q264 -11 208 15T117 87Q82 132 67 194T51 330V348Q51 439 74 509T138 627Q179 675 235 700T357 725Q464 725 528 676T605 527H455Q447 562 427 582T359 603Q292 603 253 546T211 378Q236 418
277 442T384 467Q435 467 478 451T553 405Q584 375 602 332T620 235Q620 180 601 135T547 57Q511 25 460 7T345 -11ZM343 106Q397 106 429 141T461 233Q461 290 430 325T343 360Q316 360 294 351T255 326Q239 309 230 287T221 238Q221 176 255 141T343 106Z" />
<glyph unicode="7" glyph-name="seven" horiz-adv-x="570" d="M348 584H33V715H551V697L295 0H130L348 584Z" />
<glyph unicode="8" glyph-name="eight" horiz-adv-x="651" d="M326 -11Q267 -11 216 2T127 43Q89 70 68 109T46 202Q46 268 81 313T178 381Q129 401 102 438T74 530Q74 576 94 612T150 674Q185 699 231 712T327 725Q378 725 424 712T504 674Q538 649 558 613T578
531Q578 477 550 440T474 382Q537 360 571 315T605 206Q605 153 584 113T526 45Q488 17 437 3T326 -11ZM326 107Q377 107 411 135T445 218Q445 271 412 299T327 327Q302 327 281 320T243 299Q226 285 217 265T207 217Q207 190 216 170T242 135Q258 121 279 114T326
107ZM328 426Q372 426 400 450T428 520Q428 562 399 587T327 612Q284 612 255 588T225 519Q225 475 255 451T328 426Z" />
<glyph unicode="9" glyph-name="nine" horiz-adv-x="667" d="M316 -10Q199 -10 132 43T53 193H204Q212 156 236 135T311 113Q381 113 417 168T456 334Q431 295 391 271T285 247Q233 247 190 262T114 308Q82 338 64 381T46 478Q46 533 65 579T120 658Q156 690 207
708T323 726Q397 726 452 702T543 634Q579 589 597 527T615 387V355Q615 178 538 84T316 -10ZM321 355Q376 355 409 388T443 475Q443 538 410 573T321 609Q267 609 235 574T203 482Q203 425 235 390T321 355Z" />
<glyph unicode=":" glyph-name="colon" horiz-adv-x="312" d="M155 -9Q117 -9 92 16T67 79Q67 115 92 140T155 166Q193 166 219 141T245 79Q245 61 238 45T219 17Q207 5 191 -2T155 -9ZM155 281Q117 281 92 306T67 369Q67 405 92 430T155 456Q193 456 219 431T245
369Q245 351 238 335T219 307Q207 295 191 288T155 281Z" />
<glyph unicode=";" glyph-name="semicolon" horiz-adv-x="322" d="M20 -86L108 161L244 110L108 -123L20 -86ZM174 281Q136 281 111 306T85 369Q85 405 110 430T174 456Q212 456 238 431T264 369Q264 351 257 335T238 307Q226 295 210 288T174 281Z" />
<glyph unicode="&lt;" glyph-name="less" horiz-adv-x="521" d="M52 308V337L460 572V440L243 323L460 202V72L52 308Z" />
<glyph unicode="=" glyph-name="equal" horiz-adv-x="542" d="M45 281H497V178H45V281ZM45 472H497V368H45V472Z" />
<glyph unicode="&gt;" glyph-name="greater" horiz-adv-x="521" d="M62 205L278 322L62 443V573L470 337V308L62 73V205Z" />
<glyph unicode="?" glyph-name="question" horiz-adv-x="544" d="M179 253Q179 282 188 306T211 352Q225 372 242 390T278 426Q305 452 325 477T346 533Q346 568 328 587T269 607Q227 607 201 580T170 504H31Q33 556 52 597T104 667Q136 695 180 710T278 725Q333
725 374 712T444 675Q472 651 486 618T500 545Q500 493 475 456T418 388Q400 371 382 355T350 321Q335 304 325 286T313 248V223H179V253ZM245 -9Q226 -9 209 -3T180 16Q167 28 160 43T153 77Q153 95 160 111T180 139Q192 151 209 157T245 164Q283 164 309 139T336
77Q336 59 329 44T310 16Q297 4 281 -2T245 -9Z" />
<glyph unicode="@" glyph-name="at" horiz-adv-x="931" d="M466 -154Q365 -154 286 -122T153 -33Q98 23 70 97T41 255Q41 351 77 431T174 569Q234 626 314 658T482 690Q571 690 646 663T775 588Q829 539 859 472T890 325Q890 252 872 201T824 119Q794 87 757 73T684
58Q620 58 589 79T549 141Q529 101 493 78T409 54Q335 54 291 102T247 235Q247 287 262 330T305 404Q331 435 367 452T444 469Q494 469 520 451T558 406L565 461H689L657 196Q652 161 663 143T702 125Q723 125 742 136T778 172Q794 196 803 234T813 325Q813 391
790 446T725 540Q682 579 621 600T483 622Q406 622 341 596T227 521Q178 473 151 405T123 254Q123 184 144 122T210 14Q253 -32 317 -59T468 -86Q554 -86 615 -62T717 0H803Q780 -35 746 -63T669 -112Q625 -132 574 -143T466 -154ZM446 152Q465 152 483 161T515
188Q528 205 536 229T544 285Q544 328 525 349T465 371Q427 371 401 336T374 240Q374 200 393 176T446 152Z" />
<glyph unicode="A" glyph-name="A" horiz-adv-x="732" d="M262 715H473L705 0H536L487 159H228L179 0H27L262 715ZM263 274H452L358 583L263 274Z" />
<glyph unicode="B" glyph-name="B" horiz-adv-x="671" d="M83 715H364Q482 715 541 668T601 529V525Q601 468 573 429T485 372Q555 358 591 317T628 204V200Q628 101 565 51T377 0H83V715ZM352 112Q412 112 440 138T468 213V217Q468 267 439 292T344 317H241V112H352ZM338
421Q397 421 422 443T447 513V517Q447 562 421 583T337 604H241V421H338Z" />
<glyph unicode="C" glyph-name="C" horiz-adv-x="760" d="M405 -11Q317 -11 250 15T138 89Q92 136 69 203T46 353V361Q46 442 73 509T148 625Q195 673 260 699T401 726Q465 726 520 710T618 662Q659 630 685 581T718 466H552Q543 531 507 564T402 598Q317 598
267 536T217 362V354Q217 242 265 181T403 120Q470 120 513 154T567 257H726Q719 191 693 141T625 57Q583 23 527 6T405 -11Z" />
<glyph unicode="D" glyph-name="D" horiz-adv-x="738" d="M311 126Q420 126 471 184T523 355V363Q523 473 473 531T309 589H245V126H311ZM83 715H317Q411 715 481 691T599 621Q645 575 668 510T692 365V357Q692 277 669 211T598 98Q551 51 481 26T316 0H83V715Z" />
<glyph unicode="E" glyph-name="E" horiz-adv-x="607" d="M83 715H549V589H244V422H488V304H244V126H565V0H83V715Z" />
<glyph unicode="F" glyph-name="F" horiz-adv-x="579" d="M83 715H542V588H245V399H480V277H245V0H83V715Z" />
<glyph unicode="G" glyph-name="G" horiz-adv-x="792" d="M410 -11Q322 -11 255 16T141 92Q94 140 70 206T46 353V361Q46 442 73 509T149 624Q197 672 264 699T410 726Q470 726 524 712T622 668Q665 637 693 590T728 476H567Q556 539 517 568T412 598Q318 598
267 534T215 359V351Q215 299 226 256T262 181Q286 149 323 132T414 114Q459 114 491 126T544 159Q565 179 575 206T586 265H425V383H746V307Q746 235 724 177T658 77Q615 35 553 12T410 -11Z" />
<glyph unicode="H" glyph-name="H" horiz-adv-x="776" d="M83 715H245V423H532V715H694V0H532V295H245V0H83V715Z" />
<glyph unicode="I" glyph-name="I" horiz-adv-x="337" d="M87 715H250V0H87V715Z" />
<glyph unicode="J" glyph-name="J" horiz-adv-x="469" d="M160 -9Q113 -9 87 -3T41 13V137Q59 130 79 125T131 120Q177 120 204 145T232 233V715H395V231Q395 109 333 50T160 -9Z" />
<glyph unicode="K" glyph-name="K" horiz-adv-x="698" d="M83 715H245V407L495 716H667L384 377L681 0H492L245 321V0H83V715Z" />
<glyph unicode="L" glyph-name="L" horiz-adv-x="572" d="M83 715H245V127H536V0H83V715Z" />
<glyph unicode="M" glyph-name="M" horiz-adv-x="923" d="M83 715H297L464 270L629 715H839V0H678V502L480 0H427L228 502V0H83V715Z" />
<glyph unicode="N" glyph-name="N" horiz-adv-x="770" d="M83 715H271L543 244V715H687V0H525L227 509V0H83V715Z" />
<glyph unicode="O" glyph-name="O" horiz-adv-x="828" d="M416 118Q461 118 497 135T560 183Q585 213 599 257T613 355V363Q613 415 600 458T561 532Q535 563 498 580T414 597Q367 597 331 581T268 534Q242 503 229 460T215 362V354Q215 299 230 256T272 182Q298
151 335 135T416 118ZM413 -11Q329 -11 261 16T146 93Q98 141 72 208T46 353V361Q46 441 73 508T151 623Q200 671 267 698T414 725Q495 725 562 699T679 626Q727 578 754 512T782 365V357Q782 277 756 210T681 93Q633 44 565 17T413 -11Z" />
<glyph unicode="P" glyph-name="P" horiz-adv-x="638" d="M83 715H330Q461 715 532 658T603 487V483Q603 426 584 385T530 315Q495 287 446 274T335 260H244V0H83V715ZM326 373Q387 373 417 400T447 482V486Q447 543 416 567T326 592H244V373H326Z" />
<glyph unicode="Q" glyph-name="Q" horiz-adv-x="828" d="M548 10Q517 0 484 -5T413 -11Q329 -11 261 16T146 93Q98 141 72 207T46 353V361Q46 441 73 508T151 623Q200 671 267 698T414 725Q495 725 562 699T679 626Q727 578 754 512T782 365V357Q782 269 752
198T664 76L737 -2L645 -93L548 10ZM416 114Q425 114 433 114T450 116L382 190L476 278L564 183Q587 215 600 258T613 355V363Q613 415 600 458T561 532Q535 563 498 580T414 597Q320 597 268 534T215 362V354Q215 297 230 253T272 178Q298 147 335 131T416 114Z"
/>
<glyph unicode="R" glyph-name="R" horiz-adv-x="684" d="M83 715H339Q402 715 453 702T540 662Q576 635 595 594T615 498V494Q615 453 604 422T573 368Q553 345 526 329T468 304L657 0H485L314 276H244V0H83V715ZM335 386Q396 386 426 412T457 489V493Q457 548
426 569T335 591H244V386H335Z" />
<glyph unicode="S" glyph-name="S" horiz-adv-x="652" d="M333 -11Q259 -11 205 5T115 53Q79 84 60 127T38 224H193Q196 200 203 179T226 142Q242 126 267 117T333 107Q387 107 419 133T451 202Q451 223 445 238T423 264Q407 274 381 281T316 295Q247 304 199
319T119 361Q87 386 73 423T58 512Q58 558 76 597T129 665Q163 693 211 709T318 725Q439 725 507 672T586 511H437Q430 559 400 582T318 606Q264 606 238 584T211 525Q211 506 216 492T237 467Q251 456 277 448T344 434Q409 426 458 412T540 373Q573 348 589 310T606
217Q606 169 587 128T533 56Q498 25 447 7T333 -11Z" />
<glyph unicode="T" glyph-name="T" horiz-adv-x="609" d="M223 589H30V715H579V589H386V0H223V589Z" />
<glyph unicode="U" glyph-name="U" horiz-adv-x="751" d="M372 -11Q230 -11 154 62T77 279V715H240V289Q240 199 269 159T373 118Q445 118 478 157T511 295V715H674V285Q674 138 596 64T372 -11Z" />
<glyph unicode="V" glyph-name="V" horiz-adv-x="713" d="M25 715H196L366 166L536 715H688L450 0H264L25 715Z" />
<glyph unicode="W" glyph-name="W" horiz-adv-x="983" d="M27 715H191L303 221L425 715H563L690 218L806 715H956L782 0H617L488 494L357 0H201L27 715Z" />
<glyph unicode="X" glyph-name="X" horiz-adv-x="731" d="M263 367L53 715H236L372 477L507 715H673L469 372L695 0H511L356 266L202 0H36L263 367Z" />
<glyph unicode="Y" glyph-name="Y" horiz-adv-x="660" d="M255 308L19 715H197L342 441L484 715H641L418 308V0H255V308Z" />
<glyph unicode="Z" glyph-name="Z" horiz-adv-x="627" d="M24 20L365 589H62V715H594V696L260 127H582V0H24V20Z" />
<glyph unicode="[" glyph-name="bracketleft" horiz-adv-x="402" d="M80 776H356V669H225V-41H356V-148H80V776Z" />
<glyph unicode="\" glyph-name="backslash" horiz-adv-x="435" d="M16 776H134L442 -148H324L16 776Z" />
<glyph unicode="]" glyph-name="bracketright" horiz-adv-x="402" d="M47 -41H177V669H47V776H322V-148H47V-41Z" />
<glyph unicode="^" glyph-name="asciicircum" horiz-adv-x="534" d="M202 715H332L498 399H369L266 597L162 399H37L202 715Z" />
<glyph unicode="_" glyph-name="underscore" horiz-adv-x="431" d="M5 -81H426V-160H5V-81Z" />
<glyph unicode="`" glyph-name="grave" horiz-adv-x="412" d="M57 753H209L266 594H161L57 753Z" />
<glyph unicode="a" glyph-name="a" horiz-adv-x="576" d="M211 -11Q175 -11 144 -2T88 26Q64 45 50 74T36 145Q36 191 56 223T112 275Q148 295 198 304T308 313H367V334Q367 381 350 405T282 430Q239 430 219 410T193 356H56Q59 402 78 436T129 492Q160 514 201
524T291 535Q339 535 379 525T449 491Q478 468 494 431T510 341V0H369V63Q346 31 310 10T211 -11ZM254 90Q302 90 334 114T367 183V227H311Q248 227 213 211T178 153Q178 124 196 107T254 90Z" />
<glyph unicode="b" glyph-name="b" horiz-adv-x="649" d="M382 -11Q321 -11 278 15T215 83V0H70V760H215V441Q237 479 280 507T382 535Q430 535 471 518T544 466Q575 432 592 382T610 267V259Q610 194 593 144T545 60Q514 25 473 7T382 -11ZM339 102Q399 102 431
141T463 258V266Q463 346 428 385T338 424Q281 424 246 385T210 266V258Q210 179 244 141T339 102Z" />
<glyph unicode="c" glyph-name="c" horiz-adv-x="590" d="M307 -11Q250 -11 201 6T115 58Q79 92 59 141T38 255V263Q38 326 59 376T117 463Q154 498 203 516T308 535Q353 535 395 525T472 490Q505 466 527 427T554 332H417Q410 377 384 399T311 421Q254 421 220
381T186 265V257Q186 178 219 138T314 98Q358 98 389 123T426 199H557Q554 152 536 114T486 48Q454 20 409 5T307 -11Z" />
<glyph unicode="d" glyph-name="d" horiz-adv-x="649" d="M266 -11Q218 -11 177 6T105 57Q74 90 57 139T39 254V262Q39 326 56 377T105 463Q136 498 178 516T269 535Q332 535 372 510T434 445V760H578V0H434V87Q414 47 369 18T266 -11ZM309 102Q366 102 402 140T438
259V267Q438 345 406 384T313 424Q252 424 220 384T187 265V257Q187 179 221 141T309 102Z" />
<glyph unicode="e" glyph-name="e" horiz-adv-x="599" d="M311 -11Q252 -11 202 7T116 60Q79 94 59 143T38 255V263Q38 325 58 375T116 461Q152 496 201 515T307 535Q358 535 404 520T485 472Q520 440 541 390T562 269V229H185Q188 163 221 128T315 92Q366 92
391 112T424 165H561Q548 80 484 35T311 -11ZM421 318Q417 378 388 406T307 435Q258 435 227 405T187 318H421Z" />
<glyph unicode="f" glyph-name="f" horiz-adv-x="383" d="M94 420H25V523H94V583Q94 675 143 720T281 766Q304 766 321 764T356 756V647Q345 651 332 653T303 656Q268 656 253 637T238 587V523H352V420H238V0H94V420Z" />
<glyph unicode="g" glyph-name="g" horiz-adv-x="648" d="M302 -193Q239 -193 192 -180T114 -143Q82 -119 65 -86T42 -11H186Q193 -46 219 -66T302 -87Q368 -87 401 -54T434 41V120Q423 101 407 84T368 53Q346 39 321 31T266 23Q218 23 177 40T105 90Q74 122 56
168T38 273V280Q38 336 55 383T104 464Q135 497 177 516T268 535Q332 535 371 510T434 445V523H578V41Q577 -76 505 -134T302 -193ZM309 132Q366 132 402 170T438 275V282Q438 349 405 387T312 425Q251 425 219 386T186 281V273Q186 207 220 170T309 132Z" />
<glyph unicode="h" glyph-name="h" horiz-adv-x="627" d="M70 760H215V440Q235 479 277 507T385 535Q424 535 456 523T512 487Q535 462 548 424T561 333V0H416V312Q416 366 394 391T324 417Q277 417 246 389T215 302V0H70V760Z" />
<glyph unicode="i" glyph-name="i" horiz-adv-x="293" d="M145 594Q110 594 87 616T63 673Q63 707 86 729T145 752Q180 752 204 730T228 673Q228 639 204 617T145 594ZM74 523H218V0H74V523Z" />
<glyph unicode="j" glyph-name="j" horiz-adv-x="293" d="M5 -79Q43 -76 58 -59T74 -10V523H218V-9Q218 -50 208 -82T173 -138Q148 -161 107 -173T5 -187V-79ZM145 594Q110 594 87 616T63 673Q63 707 86 729T145 752Q180 752 204 730T228 673Q228 639 204 617T145 594Z" />
<glyph unicode="k" glyph-name="k" horiz-adv-x="567" d="M70 760H215V302L383 523H537L347 285L552 0H388L215 247V0H70V760Z" />
<glyph unicode="l" glyph-name="l" horiz-adv-x="292" d="M74 760H218V0H74V760Z" />
<glyph unicode="m" glyph-name="m" horiz-adv-x="935" d="M70 523H215V443Q235 480 275 507T375 535Q427 535 464 513T521 444Q553 492 600 513T697 535Q733 535 764 524T820 488Q843 463 856 425T869 335V0H725V319Q725 370 704 393T643 416Q601 416 572 390T542
309V0H398V319Q398 370 376 393T316 416Q274 416 245 390T215 309V0H70V523Z" />
<glyph unicode="n" glyph-name="n" horiz-adv-x="627" d="M70 523H215V440Q235 479 277 507T385 535Q424 535 456 523T512 487Q535 462 548 424T561 333V0H416V312Q416 366 394 391T324 417Q277 417 246 389T215 302V0H70V523Z" />
<glyph unicode="o" glyph-name="o" horiz-adv-x="628" d="M314 99Q375 99 408 141T442 258V265Q442 340 409 382T314 425Q254 425 220 384T186 267V259Q186 184 219 142T314 99ZM313 -11Q254 -11 204 8T117 62Q80 96 59 145T38 256V264Q38 325 59 375T117 461Q154
496 204 515T314 535Q373 535 423 516T511 462Q547 427 568 378T589 267V259Q589 197 568 147T510 62Q473 27 423 8T313 -11Z" />
<glyph unicode="p" glyph-name="p" horiz-adv-x="649" d="M70 523H215V441Q237 479 280 507T382 535Q430 535 471 518T544 466Q575 432 592 382T610 267V259Q610 194 593 144T545 60Q514 25 473 7T382 -11Q321 -11 278 15T215 80V-178H70V523ZM339 102Q399 102
431 141T463 258V266Q463 346 428 385T338 424Q281 424 246 385T210 266V258Q210 179 244 141T339 102Z" />
<glyph unicode="q" glyph-name="q" horiz-adv-x="649" d="M434 84Q424 65 407 48T369 18Q347 5 321 -3T266 -11Q218 -11 177 6T105 57Q74 90 57 139T39 254V262Q39 326 56 377T105 463Q136 498 178 516T269 535Q332 535 372 510T434 445V523H578V-178H434V84ZM309
102Q366 102 402 140T438 259V267Q438 345 406 384T313 424Q252 424 220 384T187 265V257Q187 179 221 141T309 102Z" />
<glyph unicode="r" glyph-name="r" horiz-adv-x="421" d="M70 523H215V423Q240 476 280 503T384 531V396Q303 397 259 367T215 262V0H70V523Z" />
<glyph unicode="s" glyph-name="s" horiz-adv-x="514" d="M260 -11Q154 -11 95 34T32 164H167Q172 129 191 110T259 90Q301 90 321 105T341 147Q341 174 317 187T235 209Q183 217 147 229T87 260Q63 279 53 306T42 372Q42 413 59 443T106 495Q134 515 171 525T249
535Q292 535 329 527T396 499Q424 480 442 449T465 373H332Q326 405 307 420T250 436Q215 436 196 421T176 382Q176 357 198 345T277 325Q326 318 364 307T428 278Q453 259 466 231T480 161Q480 76 422 33T260 -11Z" />
<glyph unicode="t" glyph-name="t" horiz-adv-x="389" d="M261 -10Q178 -10 135 31T92 155V420H25V523H92V636H236V523H346V420H236V168Q236 137 250 122T294 106Q310 106 323 108T349 116V4Q334 -1 312 -5T261 -10Z" />
<glyph unicode="u" glyph-name="u" horiz-adv-x="624" d="M244 -11Q206 -11 174 0T117 36Q93 60 80 97T66 186V523H210V206Q210 154 233 128T301 101Q347 101 378 129T410 216V523H554V0H410V82Q390 42 350 16T244 -11Z" />
<glyph unicode="v" glyph-name="v" horiz-adv-x="584" d="M20 523H175L300 149L424 523H564L374 0H211L20 523Z" />
<glyph unicode="w" glyph-name="w" horiz-adv-x="838" d="M22 523H174L267 171L368 523H487L579 171L678 523H817L652 0H510L421 328L325 0H181L22 523Z" />
<glyph unicode="x" glyph-name="x" horiz-adv-x="586" d="M202 267L35 523H201L299 366L395 523H545L378 278L562 0H395L285 176L172 0H23L202 267Z" />
<glyph unicode="y" glyph-name="y" horiz-adv-x="579" d="M228 53L20 523H176L303 209L420 523H559L276 -178H136L228 53Z" />
<glyph unicode="z" glyph-name="z" horiz-adv-x="511" d="M20 16L278 411H46V523H488V505L228 112H478V0H20V16Z" />
<glyph unicode="{" glyph-name="braceleft" horiz-adv-x="417" d="M370 -148Q233 -148 171 -96T129 74L145 166Q152 205 129 234T40 263V366Q105 366 128 395T145 463L129 554Q118 614 129 656T171 726Q201 753 251 765T370 777V671Q307 669 284 645T270 557L285
450Q293 397 265 363T184 315Q238 303 265 269T285 180L270 74Q260 9 283 -16T370 -43V-148Z" />
<glyph unicode="|" glyph-name="bar" horiz-adv-x="274" d="M85 776H189V-148H85V776Z" />
<glyph unicode="}" glyph-name="braceright" horiz-adv-x="417" d="M46 -43Q110 -41 133 -16T147 74L132 180Q124 234 151 268T233 315Q179 328 152 362T132 450L147 557Q156 621 133 645T46 671V777Q114 777 164 765T246 726Q276 699 287 657T288 554L272 463Q269
443 272 426T289 395Q301 382 322 374T376 366V263Q344 263 323 255T289 234Q276 221 273 203T272 166L288 74Q308 -44 246 -96T46 -148V-43Z" />
<glyph unicode="~" glyph-name="asciitilde" horiz-adv-x="504" d="M40 218Q43 264 55 296T85 350Q103 371 125 380T172 390Q198 390 220 383T260 367L293 350Q308 343 321 343Q339 343 351 355T366 392H464Q462 348 450 316T420 262Q402 240 380 230T333 219Q306
219 284 226T244 243Q226 251 211 258T183 266Q164 266 153 254T138 218H40Z" />
<glyph unicode="&#xa0;" glyph-name="uni00A0" horiz-adv-x="222" />
<glyph unicode="&#xa1;" glyph-name="exclamdown" horiz-adv-x="329" d="M105 375H223L245 -117H83L105 375ZM165 434Q127 434 100 459T73 521Q73 539 80 554T101 582Q113 594 129 600T165 607Q184 607 200 601T230 582Q242 570 249 555T256 521Q256 484 230 459T165
434Z" />
<glyph unicode="&#xa2;" glyph-name="cent" horiz-adv-x="596" d="M278 -9Q226 -4 182 15T106 69Q74 102 56 149T38 255V263Q38 321 56 368T107 451Q139 485 183 506T278 533V629H349V533Q390 529 427 516T493 478Q521 453 539 417T562 332H428Q423 371 402 393T349
423V95Q384 103 408 128T437 199H565Q560 112 503 56T349 -9V-135H278V-9ZM182 257Q182 189 207 149T278 97V422Q234 410 208 370T182 265V257Z" />
<glyph unicode="&#xa3;" glyph-name="sterling" horiz-adv-x="647" d="M45 396H102Q95 420 91 446T87 504Q87 556 106 597T161 667Q195 695 241 710T342 725Q403 725 449 709T527 664Q558 635 574 594T594 503H445Q437 552 415 576T346 601Q302 601 275 573T248
497Q248 470 250 445T258 396H449V297H278Q281 277 283 257T285 214Q285 197 282 182T273 153Q309 142 339 131T394 119Q426 119 445 134T467 188H611Q609 146 596 110T559 47Q535 21 501 6T423 -9Q387 -9 356 -1T299 19Q273 29 251 38T209 47Q182 47 169 33T154
0H31Q33 25 40 49T60 95Q73 116 92 132T137 157Q141 169 143 183T146 214Q146 235 142 255T132 297H45V396Z" />
<glyph unicode="&#xa5;" glyph-name="yen" horiz-adv-x="633" d="M77 356H221L23 715H199L328 449L454 715H609L422 356H567V289H403V228H567V162H403V0H241V162H77V228H241V289H77V356Z" />
<glyph unicode="&#xa6;" glyph-name="brokenbar" horiz-adv-x="278" d="M85 300H189V-148H85V300ZM85 776H189V370H85V776Z" />
<glyph unicode="&#xa7;" glyph-name="section" horiz-adv-x="594" d="M289 -137Q192 -137 137 -91T79 39H214Q216 5 233 -15T290 -35Q328 -35 346 -18T364 27Q364 42 359 52T340 72Q326 81 303 89T245 106Q197 118 159 132T93 169Q65 191 50 220T35 292Q35 343
64 377T145 428Q119 451 107 480T94 548Q94 588 110 620T156 677Q184 700 222 712T305 725Q401 725 454 679T511 551H378Q375 584 359 602T303 621Q265 621 248 603T230 559Q230 544 235 533T253 513Q265 504 287 497T345 480Q392 469 431 455T499 420Q527 399
543 369T559 294Q559 246 530 211T450 157Q475 135 487 106T500 38Q500 0 484 -32T440 -88Q412 -111 374 -124T289 -137ZM359 210Q391 218 405 234T419 274Q419 290 413 301T393 321Q379 329 359 336T311 352L235 375Q206 370 191 353T175 310Q175 281 202 266T285
233L359 210Z" />
<glyph unicode="&#xa8;" glyph-name="dieresis" horiz-adv-x="412" d="M104 600Q73 600 52 621T30 672Q30 702 51 723T104 744Q135 744 156 723T178 672Q178 642 157 621T104 600ZM308 600Q277 600 256 621T234 672Q234 702 255 723T308 744Q339 744 360 723T382
672Q382 642 361 621T308 600Z" />
<glyph unicode="&#xa9;" glyph-name="copyright" horiz-adv-x="855" d="M432 152Q331 152 280 207T228 353V361Q228 407 243 444T285 508Q312 534 349 548T429 563Q505 563 555 527T611 413H502Q498 446 480 462T429 478Q387 478 364 448T340 361V354Q340 297
363 268T431 238Q463 238 484 255T511 307H615Q612 269 598 240T559 192Q535 172 503 162T432 152ZM427 32Q492 32 550 55T653 122Q697 165 722 225T748 359Q748 431 723 490T655 593Q611 636 553 659T429 683Q362 683 303 659T201 592Q157 549 132 489T107 357Q107
284 133 224T203 122Q246 79 304 56T427 32ZM427 -16Q349 -16 280 12T160 92Q109 142 80 210T50 357Q50 435 79 503T160 622Q211 673 280 702T429 731Q509 731 578 702T698 623Q748 572 777 505T806 359Q806 279 777 211T696 92Q644 42 575 13T427 -16Z" />
<glyph unicode="&#xaa;" glyph-name="ordfeminine" horiz-adv-x="472" d="M175 288Q146 288 121 295T76 318Q57 333 46 356T34 413Q34 450 49 475T93 516Q121 531 161 538T251 545H298V564Q298 597 285 614T237 631Q205 631 191 616T172 578H50Q53 615 68 642T109
688Q134 706 168 715T243 724Q284 724 317 715T375 688Q399 669 412 639T425 567V298H300V347Q283 323 254 306T175 288ZM216 378Q251 378 274 395T298 444V475H255Q210 475 186 464T162 423Q162 401 174 390T216 378Z" />
<glyph unicode="&#xab;" glyph-name="guillemotleft" horiz-adv-x="499" d="M47 261L174 447H277L155 261L277 75H174L47 261ZM226 261L353 447H456L334 261L456 75H353L226 261Z" />
<glyph unicode="&#xad;" glyph-name="uni00AD" horiz-adv-x="376" d="M60 339H316V224H60V339Z" />
<glyph unicode="&#xae;" glyph-name="registered" horiz-adv-x="528" d="M182 615H267Q310 615 333 598T356 546V545Q356 521 345 508T316 486L369 396H305L260 475H244V396H182V615ZM264 515Q280 515 288 522T296 542V543Q296 556 288 562T264 568H244V515H264ZM264
319Q303 319 336 332T395 370Q420 394 434 428T448 503Q448 544 435 578T397 636Q372 660 338 673T264 687Q224 687 190 674T132 636Q107 611 94 577T80 502Q80 461 94 427T134 369Q158 345 191 332T264 319ZM264 281Q217 281 176 298T103 345Q72 374 55 414T37
502Q37 548 54 588T103 660Q134 690 175 707T264 725Q312 725 353 708T425 660Q455 630 472 590T490 503Q490 456 473 416T425 345Q394 315 353 298T264 281Z" />
<glyph unicode="&#xaf;" glyph-name="macron" horiz-adv-x="412" d="M60 712H351V625H60V712Z" />
<glyph unicode="&#xb0;" glyph-name="degree" horiz-adv-x="455" d="M228 456Q268 456 293 485T318 556Q318 600 293 629T228 658Q187 658 161 629T135 556Q135 514 161 485T228 456ZM228 390Q192 390 161 403T107 440Q83 462 70 492T56 556Q56 590 69 621T107
675Q130 697 161 710T228 724Q264 724 295 711T349 675Q372 652 385 621T399 556Q399 522 386 492T349 440Q326 417 295 404T228 390Z" />
<glyph unicode="&#xb1;" glyph-name="plusminus" horiz-adv-x="563" d="M223 336H43V444H223V616H341V444H521V336H341V165H223V336ZM43 100H523V0H43V100Z" />
<glyph unicode="&#xb2;" glyph-name="twosuperior" horiz-adv-x="341" d="M12 366L140 500Q169 530 186 553T203 600Q203 618 194 628T165 639Q145 639 134 626T118 582H19Q22 650 62 685T170 720Q240 720 274 688T309 607Q309 569 289 539T237 478L188 430H312V352H12V366Z"
/>
<glyph unicode="&#xb3;" glyph-name="threesuperior" horiz-adv-x="363" d="M180 345Q140 345 112 354T64 380Q45 397 36 420T25 471H121Q123 450 135 436T174 422Q198 422 210 433T222 463Q222 484 210 494T172 504H143V568H171Q196 568 208 578T220 608Q220
624 210 634T180 644Q160 644 147 632T131 599H35Q39 652 76 686T182 720Q249 720 286 693T323 620Q323 589 306 570T259 542Q291 536 311 515T332 460Q332 408 294 377T180 345Z" />
<glyph unicode="&#xb4;" glyph-name="acute" horiz-adv-x="412" d="M203 753H355L251 594H146L203 753Z" />
<glyph unicode="&#xb6;" glyph-name="paragraph" horiz-adv-x="576" d="M269 335H259Q210 335 170 346T101 382Q72 405 56 440T40 522Q40 571 56 607T102 667Q131 691 171 703T259 715H492V-100H418V654H342V-100H269V335Z" />
<glyph unicode="&#xb7;" glyph-name="periodcentered" horiz-adv-x="305" d="M152 239Q114 239 89 264T63 327Q63 363 88 388T152 414Q190 414 216 389T242 327Q242 309 235 293T216 265Q204 253 188 246T152 239Z" />
<glyph unicode="&#xb8;" glyph-name="cedilla" horiz-adv-x="412" d="M211 -222Q160 -222 130 -198T94 -132H168Q170 -144 179 -153T206 -163Q223 -163 232 -154T241 -130Q241 -116 232 -108T207 -99Q196 -99 189 -102T176 -109L140 -74L185 0H250L221 -48Q241
-46 259 -50T293 -65Q307 -75 316 -91T325 -132Q325 -176 293 -199T211 -222Z" />
<glyph unicode="&#xb9;" glyph-name="onesuperior" horiz-adv-x="278" d="M109 610L27 561V650L124 715H219V352H109V610Z" />
<glyph unicode="&#xba;" glyph-name="ordmasculine" horiz-adv-x="523" d="M262 386Q307 386 330 417T353 504V510Q353 565 330 595T262 626Q218 626 194 596T170 510V504Q170 447 193 417T262 386ZM261 288Q214 288 173 302T102 345Q72 372 55 411T38 500V506Q38
556 55 596T102 666Q132 694 173 709T262 724Q310 724 350 709T421 667Q451 639 468 600T485 511V505Q485 455 468 415T421 346Q391 318 350 303T261 288Z" />
<glyph unicode="&#xbb;" glyph-name="guillemotright" horiz-adv-x="499" d="M165 261L44 447H147L273 261L147 75H44L165 261ZM344 261L223 447H326L452 261L326 75H223L344 261Z" />
<glyph unicode="&#xbc;" glyph-name="onequarter" horiz-adv-x="765" d="M112 610L30 561V650L127 715H222V352H112V610ZM606 715H690L150 0H66L606 715ZM584 70H403V110L558 364H689V143H736V70H689V1H584V70ZM587 143V290L502 143H587Z" />
<glyph unicode="&#xbd;" glyph-name="onehalf" horiz-adv-x="772" d="M112 610L30 561V650L127 715H222V352H112V610ZM593 715H677L137 0H53L593 715ZM439 15L567 149Q596 179 613 202T630 249Q630 267 621 277T592 288Q572 288 561 275T545 231H446Q449 299 489
334T597 369Q667 369 701 337T736 256Q736 218 716 188T664 127L615 79H739V1H439V15Z" />
<glyph unicode="&#xbe;" glyph-name="threequarters" horiz-adv-x="785" d="M183 345Q143 345 115 354T67 380Q48 397 39 420T28 471H124Q126 450 138 436T177 422Q201 422 213 433T225 463Q225 484 213 494T175 504H146V568H174Q199 568 211 578T223 608Q223
624 213 634T183 644Q163 644 150 632T134 599H38Q42 652 79 686T185 720Q252 720 289 693T326 620Q326 589 309 570T262 542Q294 536 314 515T335 460Q335 408 297 377T183 345ZM649 715H733L193 0H109L649 715ZM602 70H421V110L576 364H707V143H754V70H707V1H602V70ZM605
143V290L520 143H605Z" />
<glyph unicode="&#xbf;" glyph-name="questiondown" horiz-adv-x="544" d="M365 345Q365 316 356 292T333 247Q319 226 302 208T266 173Q238 147 218 122T198 66Q198 31 216 11T275 -9Q317 -9 343 18T374 94H513Q511 42 492 2T441 -68Q408 -96 364 -111T266 -126Q210
-126 169 -113T99 -76Q71 -52 57 -19T43 54Q43 79 50 101T68 142Q79 161 94 177T125 210Q143 228 161 244T194 278Q209 295 219 312T231 350V375H365V345ZM299 607Q337 607 363 582T390 521Q390 503 383 487T364 460Q351 448 335 441T299 434Q280 434 264 441T235
460Q222 471 215 487T208 521Q208 539 215 554T235 582Q247 594 263 600T299 607Z" />
<glyph unicode="&#xc0;" glyph-name="Agrave" horiz-adv-x="732" d="M262 715H473L705 0H536L487 159H228L179 0H27L262 715ZM263 274H452L358 583L263 274ZM219 902H375L427 763H318L219 902Z" />
<glyph unicode="&#xc1;" glyph-name="Aacute" horiz-adv-x="732" d="M262 715H473L705 0H536L487 159H228L179 0H27L262 715ZM263 274H452L358 583L263 274ZM356 902H513L412 763H303L356 902Z" />
<glyph unicode="&#xc2;" glyph-name="Acircumflex" horiz-adv-x="732" d="M262 715H473L705 0H536L487 159H228L179 0H27L262 715ZM263 274H452L358 583L263 274ZM305 902H428L536 763H432L364 816L295 763H193L305 902Z" />
<glyph unicode="&#xc3;" glyph-name="Atilde" horiz-adv-x="732" d="M262 715H473L705 0H536L487 159H228L179 0H27L262 715ZM263 274H452L358 583L263 274ZM426 764Q406 764 390 770T360 783Q346 789 334 795T311 801Q297 801 288 791T276 764H190Q195 833 227
868T304 904Q322 904 338 898T369 885Q383 878 395 872T420 866Q434 866 442 876T454 903H541Q535 834 502 799T426 764Z" />
<glyph unicode="&#xc4;" glyph-name="Adieresis" horiz-adv-x="732" d="M262 715H473L705 0H536L487 159H228L179 0H27L262 715ZM263 274H452L358 583L263 274ZM257 769Q226 769 205 790T183 842Q183 872 204 893T257 914Q287 914 309 893T331 842Q331 812 309
791T257 769ZM472 769Q442 769 421 790T399 842Q399 872 420 893T472 914Q503 914 524 893T546 842Q546 812 525 791T472 769Z" />
<glyph unicode="&#xc5;" glyph-name="Aring" horiz-adv-x="732" d="M262 715H473L705 0H536L487 159H228L179 0H27L262 715ZM263 274H452L358 583L263 274ZM365 808Q386 808 400 823T414 861Q414 884 400 899T365 915Q343 915 330 900T316 861Q316 838 329 823T365
808ZM365 750Q341 750 321 759T284 783Q268 798 259 818T250 861Q250 884 259 904T284 940Q300 955 320 964T365 973Q389 973 409 964T446 940Q462 925 471 905T480 861Q480 838 471 818T446 783Q430 768 410 759T365 750Z" />
<glyph unicode="&#xc6;" glyph-name="AE" horiz-adv-x="995" d="M363 715H937V589H637V422H876V304H637V126H954V0H475V168H257L180 0H23L363 715ZM309 280H475V589H451L309 280Z" />
<glyph unicode="&#xc7;" glyph-name="Ccedilla" horiz-adv-x="760" d="M385 -222Q334 -222 304 -198T268 -132H342Q344 -144 353 -153T380 -163Q397 -163 406 -154T415 -130Q415 -116 406 -108T381 -99Q370 -99 363 -102T350 -109L314 -74L354 -8Q279 -1 222 27T125
103Q86 150 66 213T46 353V361Q46 442 73 509T148 625Q195 673 260 699T401 726Q465 726 520 710T618 662Q659 630 685 581T718 466H552Q543 531 507 564T402 598Q317 598 267 536T217 362V354Q217 242 265 181T403 120Q470 120 513 154T567 257H726Q719 192 694
143T629 60Q588 26 535 9T417 -11L395 -48Q415 -46 433 -50T467 -65Q481 -75 490 -91T499 -132Q499 -176 467 -199T385 -222Z" />
<glyph unicode="&#xc8;" glyph-name="Egrave" horiz-adv-x="607" d="M83 715H549V589H244V422H488V304H244V126H565V0H83V715ZM177 902H333L385 763H276L177 902Z" />
<glyph unicode="&#xc9;" glyph-name="Eacute" horiz-adv-x="607" d="M83 715H549V589H244V422H488V304H244V126H565V0H83V715ZM314 902H471L370 763H261L314 902Z" />
<glyph unicode="&#xca;" glyph-name="Ecircumflex" horiz-adv-x="607" d="M83 715H549V589H244V422H488V304H244V126H565V0H83V715ZM263 902H386L494 763H390L322 816L253 763H151L263 902Z" />
<glyph unicode="&#xcb;" glyph-name="Edieresis" horiz-adv-x="607" d="M83 715H549V589H244V422H488V304H244V126H565V0H83V715ZM215 769Q184 769 163 790T141 842Q141 872 162 893T215 914Q245 914 267 893T289 842Q289 812 267 791T215 769ZM430 769Q400 769
379 790T357 842Q357 872 378 893T430 914Q461 914 482 893T504 842Q504 812 483 791T430 769Z" />
<glyph unicode="&#xcc;" glyph-name="Igrave" horiz-adv-x="337" d="M87 715H250V0H87V715ZM279 902H435L487 763H378L279 902Z" />
<glyph unicode="&#xcd;" glyph-name="Iacute" horiz-adv-x="337" d="M87 715H250V0H87V715ZM416 902H573L472 763H363L416 902Z" />
<glyph unicode="&#xce;" glyph-name="Icircumflex" horiz-adv-x="337" d="M87 715H250V0H87V715ZM365 902H488L596 763H492L424 816L355 763H253L365 902Z" />
<glyph unicode="&#xcf;" glyph-name="Idieresis" horiz-adv-x="337" d="M87 715H250V0H87V715ZM317 769Q286 769 265 790T243 842Q243 872 264 893T317 914Q347 914 369 893T391 842Q391 812 369 791T317 769ZM532 769Q502 769 481 790T459 842Q459 872 480 893T532
914Q563 914 584 893T606 842Q606 812 585 791T532 769Z" />
<glyph unicode="&#xd0;" glyph-name="Eth" horiz-adv-x="765" d="M37 415H102V715H336Q430 715 500 691T618 621Q664 575 687 510T711 365V357Q711 277 688 211T617 98Q570 51 500 26T335 0H102V303H37V415ZM330 126Q439 126 490 184T542 355V363Q542 474 492
531T329 589H262V415H413V303H262V126H330Z" />
<glyph unicode="&#xd1;" glyph-name="Ntilde" horiz-adv-x="770" d="M83 715H271L543 244V715H687V0H525L227 509V0H83V715ZM461 764Q441 764 425 770T395 783Q381 789 369 795T346 801Q332 801 323 791T311 764H225Q230 833 262 868T339 904Q357 904 373 898T404
885Q418 878 430 872T455 866Q469 866 477 876T489 903H576Q570 834 537 799T461 764Z" />
<glyph unicode="&#xd2;" glyph-name="Ograve" horiz-adv-x="828" d="M416 118Q461 118 497 135T560 183Q585 213 599 257T613 355V363Q613 415 600 458T561 532Q535 563 498 580T414 597Q367 597 331 581T268 534Q242 503 229 460T215 362V354Q215 299 230 256T272
182Q298 151 335 135T416 118ZM413 -11Q329 -11 261 16T146 93Q98 141 72 208T46 353V361Q46 441 73 508T151 623Q200 671 267 698T414 725Q495 725 562 699T679 626Q727 578 754 512T782 365V357Q782 277 756 210T681 93Q633 44 565 17T413 -11ZM267 902H423L475
763H366L267 902Z" />
<glyph unicode="&#xd3;" glyph-name="Oacute" horiz-adv-x="828" d="M416 118Q461 118 497 135T560 183Q585 213 599 257T613 355V363Q613 415 600 458T561 532Q535 563 498 580T414 597Q367 597 331 581T268 534Q242 503 229 460T215 362V354Q215 299 230 256T272
182Q298 151 335 135T416 118ZM413 -11Q329 -11 261 16T146 93Q98 141 72 208T46 353V361Q46 441 73 508T151 623Q200 671 267 698T414 725Q495 725 562 699T679 626Q727 578 754 512T782 365V357Q782 277 756 210T681 93Q633 44 565 17T413 -11ZM404 902H561L460
763H351L404 902Z" />
<glyph unicode="&#xd4;" glyph-name="Ocircumflex" horiz-adv-x="828" d="M416 118Q461 118 497 135T560 183Q585 213 599 257T613 355V363Q613 415 600 458T561 532Q535 563 498 580T414 597Q367 597 331 581T268 534Q242 503 229 460T215 362V354Q215 299 230
256T272 182Q298 151 335 135T416 118ZM413 -11Q329 -11 261 16T146 93Q98 141 72 208T46 353V361Q46 441 73 508T151 623Q200 671 267 698T414 725Q495 725 562 699T679 626Q727 578 754 512T782 365V357Q782 277 756 210T681 93Q633 44 565 17T413 -11ZM353 902H476L584
763H480L412 816L343 763H241L353 902Z" />
<glyph unicode="&#xd5;" glyph-name="Otilde" horiz-adv-x="828" d="M416 118Q461 118 497 135T560 183Q585 213 599 257T613 355V363Q613 415 600 458T561 532Q535 563 498 580T414 597Q367 597 331 581T268 534Q242 503 229 460T215 362V354Q215 299 230 256T272
182Q298 151 335 135T416 118ZM413 -11Q329 -11 261 16T146 93Q98 141 72 208T46 353V361Q46 441 73 508T151 623Q200 671 267 698T414 725Q495 725 562 699T679 626Q727 578 754 512T782 365V357Q782 277 756 210T681 93Q633 44 565 17T413 -11ZM474 764Q454 764
438 770T408 783Q394 789 382 795T359 801Q345 801 336 791T324 764H238Q243 833 275 868T352 904Q370 904 386 898T417 885Q431 878 443 872T468 866Q482 866 490 876T502 903H589Q583 834 550 799T474 764Z" />
<glyph unicode="&#xd6;" glyph-name="Odieresis" horiz-adv-x="828" d="M416 118Q461 118 497 135T560 183Q585 213 599 257T613 355V363Q613 415 600 458T561 532Q535 563 498 580T414 597Q367 597 331 581T268 534Q242 503 229 460T215 362V354Q215 299 230
256T272 182Q298 151 335 135T416 118ZM413 -11Q329 -11 261 16T146 93Q98 141 72 208T46 353V361Q46 441 73 508T151 623Q200 671 267 698T414 725Q495 725 562 699T679 626Q727 578 754 512T782 365V357Q782 277 756 210T681 93Q633 44 565 17T413 -11ZM305 769Q274
769 253 790T231 842Q231 872 252 893T305 914Q335 914 357 893T379 842Q379 812 357 791T305 769ZM520 769Q490 769 469 790T447 842Q447 872 468 893T520 914Q551 914 572 893T594 842Q594 812 573 791T520 769Z" />
<glyph unicode="&#xd7;" glyph-name="multiply" horiz-adv-x="546" d="M299 182L452 335L298 489L375 567L529 412L682 565L760 488L606 335L761 181L683 103L529 258L376 105L299 182Z" />
<glyph unicode="&#xd8;" glyph-name="Oslash" horiz-adv-x="828" d="M39 21L126 114Q87 161 67 221T46 353V361Q46 441 73 508T151 623Q200 671 267 698T414 725Q479 725 535 708T636 660L712 741L766 687L693 609Q735 562 758 501T782 365V357Q782 277 756 210T681
93Q633 44 565 17T413 -11Q343 -11 285 7T180 61L93 -32L39 21ZM416 118Q462 118 498 135T561 183Q587 213 601 257T615 355V363Q615 401 608 434T587 495L281 168Q308 143 341 131T416 118ZM213 354Q213 319 219 289T236 232L539 556Q514 577 483 587T414 597Q320
597 267 534T213 362V354Z" />
<glyph unicode="&#xd9;" glyph-name="Ugrave" horiz-adv-x="751" d="M372 -11Q230 -11 154 62T77 279V715H240V289Q240 199 269 159T373 118Q445 118 478 157T511 295V715H674V285Q674 138 596 64T372 -11ZM228 902H384L436 763H327L228 902Z" />
<glyph unicode="&#xda;" glyph-name="Uacute" horiz-adv-x="751" d="M372 -11Q230 -11 154 62T77 279V715H240V289Q240 199 269 159T373 118Q445 118 478 157T511 295V715H674V285Q674 138 596 64T372 -11ZM365 902H522L421 763H312L365 902Z" />
<glyph unicode="&#xdb;" glyph-name="Ucircumflex" horiz-adv-x="751" d="M372 -11Q230 -11 154 62T77 279V715H240V289Q240 199 269 159T373 118Q445 118 478 157T511 295V715H674V285Q674 138 596 64T372 -11ZM314 902H437L545 763H441L373 816L304 763H202L314 902Z" />
<glyph unicode="&#xdc;" glyph-name="Udieresis" horiz-adv-x="751" d="M372 -11Q230 -11 154 62T77 279V715H240V289Q240 199 269 159T373 118Q445 118 478 157T511 295V715H674V285Q674 138 596 64T372 -11ZM266 769Q235 769 214 790T192 842Q192 872 213 893T266
914Q296 914 318 893T340 842Q340 812 318 791T266 769ZM481 769Q451 769 430 790T408 842Q408 872 429 893T481 914Q512 914 533 893T555 842Q555 812 534 791T481 769Z" />
<glyph unicode="&#xdd;" glyph-name="Yacute" horiz-adv-x="660" d="M255 308L19 715H197L342 441L484 715H641L418 308V0H255V308ZM325 902H482L381 763H272L325 902Z" />
<glyph unicode="&#xde;" glyph-name="Thorn" horiz-adv-x="638" d="M83 715H244V592H330Q460 592 531 539T603 371V367Q603 311 584 270T530 201Q495 173 446 160T335 146H244V0H83V715ZM326 260Q387 260 417 287T447 367V371Q447 428 416 451T326 474H244V260H326Z" />
<glyph unicode="&#xdf;" glyph-name="germandbls" horiz-adv-x="631" d="M370 -10Q338 -10 314 -6T276 3V115Q287 110 303 107T339 103Q359 103 378 108T413 129Q428 143 437 167T447 231V237Q447 310 403 343T288 376V486Q319 486 341 494T377 517Q390 530 396
547T402 583V587Q402 628 379 650T310 673Q266 673 240 644T214 563V0H70V552Q70 608 90 649T144 719Q177 746 222 759T317 773Q368 773 409 761T479 726Q508 702 523 668T539 591V589Q539 538 507 498T420 440Q456 431 488 414T544 370Q567 343 580 308T594 230V223Q594
161 577 117T529 45Q498 17 457 4T370 -10Z" />
<glyph unicode="&#xe0;" glyph-name="agrave" horiz-adv-x="576" d="M211 -11Q175 -11 144 -2T88 26Q64 45 50 74T36 145Q36 191 56 223T112 275Q148 295 198 304T308 313H367V334Q367 381 350 405T282 430Q239 430 219 410T193 356H56Q59 402 78 436T129 492Q160
514 201 524T291 535Q339 535 379 525T449 491Q478 468 494 431T510 341V0H369V63Q346 31 310 10T211 -11ZM254 90Q302 90 334 114T367 183V227H311Q248 227 213 211T178 153Q178 124 196 107T254 90ZM139 753H291L348 594H243L139 753Z" />
<glyph unicode="&#xe1;" glyph-name="aacute" horiz-adv-x="576" d="M211 -11Q175 -11 144 -2T88 26Q64 45 50 74T36 145Q36 191 56 223T112 275Q148 295 198 304T308 313H367V334Q367 381 350 405T282 430Q239 430 219 410T193 356H56Q59 402 78 436T129 492Q160
514 201 524T291 535Q339 535 379 525T449 491Q478 468 494 431T510 341V0H369V63Q346 31 310 10T211 -11ZM254 90Q302 90 334 114T367 183V227H311Q248 227 213 211T178 153Q178 124 196 107T254 90ZM289 753H441L337 594H232L289 753Z" />
<glyph unicode="&#xe2;" glyph-name="acircumflex" horiz-adv-x="576" d="M211 -11Q175 -11 144 -2T88 26Q64 45 50 74T36 145Q36 191 56 223T112 275Q148 295 198 304T308 313H367V334Q367 381 350 405T282 430Q239 430 219 410T193 356H56Q59 402 78 436T129
492Q160 514 201 524T291 535Q339 535 379 525T449 491Q478 468 494 431T510 341V0H369V63Q346 31 310 10T211 -11ZM254 90Q302 90 334 114T367 183V227H311Q248 227 213 211T178 153Q178 124 196 107T254 90ZM230 751H339L453 595H351L282 658L212 595H113L230
751Z" />
<glyph unicode="&#xe3;" glyph-name="atilde" horiz-adv-x="576" d="M211 -11Q175 -11 144 -2T88 26Q64 45 50 74T36 145Q36 191 56 223T112 275Q148 295 198 304T308 313H367V334Q367 381 350 405T282 430Q239 430 219 410T193 356H56Q59 402 78 436T129 492Q160
514 201 524T291 535Q339 535 379 525T449 491Q478 468 494 431T510 341V0H369V63Q346 31 310 10T211 -11ZM254 90Q302 90 334 114T367 183V227H311Q248 227 213 211T178 153Q178 124 196 107T254 90ZM350 598Q331 598 315 604T286 617L260 630Q248 636 237 636Q224
636 215 626T202 599H119Q124 668 154 704T229 740Q247 740 263 734T293 722Q307 715 319 709T344 703Q358 703 366 713T378 740H462Q456 670 425 634T350 598Z" />
<glyph unicode="&#xe4;" glyph-name="adieresis" horiz-adv-x="576" d="M211 -11Q175 -11 144 -2T88 26Q64 45 50 74T36 145Q36 191 56 223T112 275Q148 295 198 304T308 313H367V334Q367 381 350 405T282 430Q239 430 219 410T193 356H56Q59 402 78 436T129 492Q160
514 201 524T291 535Q339 535 379 525T449 491Q478 468 494 431T510 341V0H369V63Q346 31 310 10T211 -11ZM254 90Q302 90 334 114T367 183V227H311Q248 227 213 211T178 153Q178 124 196 107T254 90ZM188 600Q157 600 136 621T114 672Q114 702 135 723T188 744Q219
744 240 723T262 672Q262 642 241 621T188 600ZM392 600Q361 600 340 621T318 672Q318 702 339 723T392 744Q423 744 444 723T466 672Q466 642 445 621T392 600Z" />
<glyph unicode="&#xe5;" glyph-name="aring" horiz-adv-x="576" d="M211 -11Q175 -11 144 -2T88 26Q64 45 50 74T36 145Q36 191 56 223T112 275Q148 295 198 304T308 313H367V334Q367 381 350 405T282 430Q239 430 219 410T193 356H56Q59 402 78 436T129 492Q160
514 201 524T291 535Q339 535 379 525T449 491Q478 468 494 431T510 341V0H369V63Q346 31 310 10T211 -11ZM254 90Q302 90 334 114T367 183V227H311Q248 227 213 211T178 153Q178 124 196 107T254 90ZM292 643Q313 643 327 658T341 696Q341 719 327 734T292 750Q270
750 257 735T243 696Q243 673 256 658T292 643ZM292 585Q268 585 248 594T211 618Q195 633 186 653T177 696Q177 719 186 739T211 775Q227 790 247 799T292 808Q316 808 336 799T373 775Q389 760 398 740T407 696Q407 673 398 653T373 618Q357 603 337 594T292
585Z" />
<glyph unicode="&#xe6;" glyph-name="ae" horiz-adv-x="910" d="M629 -11Q560 -11 510 13T428 86Q394 38 346 14T222 -11Q184 -11 150 -2T91 26Q65 45 51 74T36 145Q36 191 56 223T112 277Q147 297 196 306T306 316H368V334Q368 381 350 405T283 430Q239 430 219
411T193 356H56Q59 402 78 436T129 492Q159 514 199 524T286 535Q344 535 386 519T453 465Q485 499 527 517T624 535Q673 535 718 520T798 473Q832 441 852 391T873 271V232H506Q510 164 540 128T630 92Q679 92 704 112T735 165H871Q859 80 796 35T629 -11ZM254
90Q305 90 336 114T368 183V229H309Q248 229 213 214T178 156Q178 125 196 108T254 90ZM732 318Q728 376 701 405T624 435Q576 435 546 404T508 318H732Z" />
<glyph unicode="&#xe7;" glyph-name="ccedilla" horiz-adv-x="590" d="M288 -222Q237 -222 207 -198T171 -132H245Q247 -144 256 -153T283 -163Q300 -163 309 -154T318 -130Q318 -116 309 -108T284 -99Q273 -99 266 -102T253 -109L217 -74L257 -7Q209 0 169 20T100
74Q70 107 54 152T38 255V263Q38 326 59 376T117 463Q154 498 203 516T308 535Q353 535 395 525T472 490Q505 466 527 427T554 332H417Q410 377 384 399T311 421Q254 421 220 381T186 265V257Q186 178 219 138T314 98Q358 98 389 123T426 199H557Q551 108 490 51T320
-11L298 -48Q318 -46 336 -50T370 -65Q384 -75 393 -91T402 -132Q402 -176 370 -199T288 -222Z" />
<glyph unicode="&#xe8;" glyph-name="egrave" horiz-adv-x="599" d="M311 -11Q252 -11 202 7T116 60Q79 94 59 143T38 255V263Q38 325 58 375T116 461Q152 496 201 515T307 535Q358 535 404 520T485 472Q520 440 541 390T562 269V229H185Q188 163 221 128T315
92Q366 92 391 112T424 165H561Q548 80 484 35T311 -11ZM421 318Q417 378 388 406T307 435Q258 435 227 405T187 318H421ZM153 753H305L362 594H257L153 753Z" />
<glyph unicode="&#xe9;" glyph-name="eacute" horiz-adv-x="599" d="M311 -11Q252 -11 202 7T116 60Q79 94 59 143T38 255V263Q38 325 58 375T116 461Q152 496 201 515T307 535Q358 535 404 520T485 472Q520 440 541 390T562 269V229H185Q188 163 221 128T315
92Q366 92 391 112T424 165H561Q548 80 484 35T311 -11ZM421 318Q417 378 388 406T307 435Q258 435 227 405T187 318H421ZM303 753H455L351 594H246L303 753Z" />
<glyph unicode="&#xea;" glyph-name="ecircumflex" horiz-adv-x="599" d="M311 -11Q252 -11 202 7T116 60Q79 94 59 143T38 255V263Q38 325 58 375T116 461Q152 496 201 515T307 535Q358 535 404 520T485 472Q520 440 541 390T562 269V229H185Q188 163 221 128T315
92Q366 92 391 112T424 165H561Q548 80 484 35T311 -11ZM421 318Q417 378 388 406T307 435Q258 435 227 405T187 318H421ZM251 751H360L474 595H372L303 658L233 595H134L251 751Z" />
<glyph unicode="&#xeb;" glyph-name="edieresis" horiz-adv-x="599" d="M311 -11Q252 -11 202 7T116 60Q79 94 59 143T38 255V263Q38 325 58 375T116 461Q152 496 201 515T307 535Q358 535 404 520T485 472Q520 440 541 390T562 269V229H185Q188 163 221 128T315
92Q366 92 391 112T424 165H561Q548 80 484 35T311 -11ZM421 318Q417 378 388 406T307 435Q258 435 227 405T187 318H421ZM202 600Q171 600 150 621T128 672Q128 702 149 723T202 744Q233 744 254 723T276 672Q276 642 255 621T202 600ZM406 600Q375 600 354 621T332
672Q332 702 353 723T406 744Q437 744 458 723T480 672Q480 642 459 621T406 600Z" />
<glyph unicode="&#xec;" glyph-name="igrave" horiz-adv-x="293" d="M74 523H218V0H74V523ZM253 753H405L462 594H357L253 753Z" />
<glyph unicode="&#xed;" glyph-name="iacute" horiz-adv-x="293" d="M74 523H218V0H74V523ZM403 753H555L451 594H346L403 753Z" />
<glyph unicode="&#xee;" glyph-name="icircumflex" horiz-adv-x="293" d="M74 523H218V0H74V523ZM351 751H460L574 595H472L403 658L333 595H234L351 751Z" />
<glyph unicode="&#xef;" glyph-name="idieresis" horiz-adv-x="293" d="M46 600Q16 600 -5 621T-27 672Q-27 702 -6 723T46 744Q77 744 98 723T120 672Q120 642 99 621T46 600ZM245 600Q215 600 194 621T172 672Q172 702 193 723T245 744Q276 744 297 723T319
672Q319 642 298 621T245 600ZM74 523H218V0H74V523Z" />
<glyph unicode="&#xf0;" glyph-name="eth" horiz-adv-x="628" d="M137 619L243 665Q212 691 181 715T120 760H285Q302 750 319 739T355 713L454 756L479 698L410 668Q444 636 476 596T534 510Q559 463 574 410T589 297V275Q589 210 569 157T512 67Q475 29 424
9T311 -11Q252 -11 203 8T116 63Q79 98 59 148T38 261V271Q38 331 58 378T111 460Q144 494 186 512T274 530Q317 530 345 516T397 476Q379 514 352 549T293 618L163 562L137 619ZM314 99Q375 99 408 141T442 258V265Q442 340 409 382T315 425Q255 425 221 384T186
267V259Q186 183 219 141T314 99Z" />
<glyph unicode="&#xf1;" glyph-name="ntilde" horiz-adv-x="627" d="M70 523H215V440Q235 479 277 507T385 535Q424 535 456 523T512 487Q535 462 548 424T561 333V0H416V312Q416 366 394 391T324 417Q277 417 246 389T215 302V0H70V523ZM373 598Q354 598 338
604T309 617L283 630Q271 636 260 636Q247 636 238 626T225 599H142Q147 668 177 704T252 740Q270 740 286 734T316 722Q330 715 342 709T367 703Q381 703 389 713T401 740H485Q479 670 448 634T373 598Z" />
<glyph unicode="&#xf2;" glyph-name="ograve" horiz-adv-x="628" d="M314 99Q375 99 408 141T442 258V265Q442 340 409 382T314 425Q254 425 220 384T186 267V259Q186 184 219 142T314 99ZM313 -11Q254 -11 204 8T117 62Q80 96 59 145T38 256V264Q38 325 59 375T117
461Q154 496 204 515T314 535Q373 535 423 516T511 462Q547 427 568 378T589 267V259Q589 197 568 147T510 62Q473 27 423 8T313 -11ZM162 753H314L371 594H266L162 753Z" />
<glyph unicode="&#xf3;" glyph-name="oacute" horiz-adv-x="628" d="M314 99Q375 99 408 141T442 258V265Q442 340 409 382T314 425Q254 425 220 384T186 267V259Q186 184 219 142T314 99ZM313 -11Q254 -11 204 8T117 62Q80 96 59 145T38 256V264Q38 325 59 375T117
461Q154 496 204 515T314 535Q373 535 423 516T511 462Q547 427 568 378T589 267V259Q589 197 568 147T510 62Q473 27 423 8T313 -11ZM312 753H464L360 594H255L312 753Z" />
<glyph unicode="&#xf4;" glyph-name="ocircumflex" horiz-adv-x="628" d="M314 99Q375 99 408 141T442 258V265Q442 340 409 382T314 425Q254 425 220 384T186 267V259Q186 184 219 142T314 99ZM313 -11Q254 -11 204 8T117 62Q80 96 59 145T38 256V264Q38 325
59 375T117 461Q154 496 204 515T314 535Q373 535 423 516T511 462Q547 427 568 378T589 267V259Q589 197 568 147T510 62Q473 27 423 8T313 -11ZM260 751H369L483 595H381L312 658L242 595H143L260 751Z" />
<glyph unicode="&#xf5;" glyph-name="otilde" horiz-adv-x="628" d="M314 99Q375 99 408 141T442 258V265Q442 340 409 382T314 425Q254 425 220 384T186 267V259Q186 184 219 142T314 99ZM313 -11Q254 -11 204 8T117 62Q80 96 59 145T38 256V264Q38 325 59 375T117
461Q154 496 204 515T314 535Q373 535 423 516T511 462Q547 427 568 378T589 267V259Q589 197 568 147T510 62Q473 27 423 8T313 -11ZM373 598Q354 598 338 604T309 617L283 630Q271 636 260 636Q247 636 238 626T225 599H142Q147 668 177 704T252 740Q270 740
286 734T316 722Q330 715 342 709T367 703Q381 703 389 713T401 740H485Q479 670 448 634T373 598Z" />
<glyph unicode="&#xf6;" glyph-name="odieresis" horiz-adv-x="628" d="M314 99Q375 99 408 141T442 258V265Q442 340 409 382T314 425Q254 425 220 384T186 267V259Q186 184 219 142T314 99ZM313 -11Q254 -11 204 8T117 62Q80 96 59 145T38 256V264Q38 325 59
375T117 461Q154 496 204 515T314 535Q373 535 423 516T511 462Q547 427 568 378T589 267V259Q589 197 568 147T510 62Q473 27 423 8T313 -11ZM211 600Q180 600 159 621T137 672Q137 702 158 723T211 744Q242 744 263 723T285 672Q285 642 264 621T211 600ZM415
600Q384 600 363 621T341 672Q341 702 362 723T415 744Q446 744 467 723T489 672Q489 642 468 621T415 600Z" />
<glyph unicode="&#xf7;" glyph-name="divide" horiz-adv-x="565" d="M282 60Q247 60 223 83T199 142Q199 176 223 200T282 224Q317 224 341 200T365 142Q365 107 341 84T282 60ZM43 393H522V289H43V393ZM282 458Q247 458 223 481T199 540Q199 575 223 598T282
622Q317 622 341 599T365 540Q365 505 341 482T282 458Z" />
<glyph unicode="&#xf8;" glyph-name="oslash" horiz-adv-x="628" d="M28 6L98 81Q69 115 54 158T38 256V264Q38 325 59 375T117 461Q154 496 204 515T314 535Q361 535 401 524T475 489L541 560L590 516L525 446Q555 412 572 367T589 267V259Q589 197 568 147T510
62Q473 27 423 8T313 -11Q265 -11 223 1T147 37L77 -38L28 6ZM314 98Q376 98 409 140T443 258V265Q443 288 440 307T430 343L230 127Q246 113 267 106T314 98ZM185 259Q185 238 187 220T195 186L392 399Q377 412 358 418T314 425Q253 425 219 384T185 267V259Z"
/>
<glyph unicode="&#xf9;" glyph-name="ugrave" horiz-adv-x="624" d="M244 -11Q206 -11 174 0T117 36Q93 60 80 97T66 186V523H210V206Q210 154 233 128T301 101Q347 101 378 129T410 216V523H554V0H410V82Q390 42 350 16T244 -11ZM160 753H312L369 594H264L160 753Z" />
<glyph unicode="&#xfa;" glyph-name="uacute" horiz-adv-x="624" d="M244 -11Q206 -11 174 0T117 36Q93 60 80 97T66 186V523H210V206Q210 154 233 128T301 101Q347 101 378 129T410 216V523H554V0H410V82Q390 42 350 16T244 -11ZM310 753H462L358 594H253L310 753Z" />
<glyph unicode="&#xfb;" glyph-name="ucircumflex" horiz-adv-x="624" d="M244 -11Q206 -11 174 0T117 36Q93 60 80 97T66 186V523H210V206Q210 154 233 128T301 101Q347 101 378 129T410 216V523H554V0H410V82Q390 42 350 16T244 -11ZM258 751H367L481 595H379L310
658L240 595H141L258 751Z" />
<glyph unicode="&#xfc;" glyph-name="udieresis" horiz-adv-x="624" d="M244 -11Q206 -11 174 0T117 36Q93 60 80 97T66 186V523H210V206Q210 154 233 128T301 101Q347 101 378 129T410 216V523H554V0H410V82Q390 42 350 16T244 -11ZM209 600Q178 600 157 621T135
672Q135 702 156 723T209 744Q240 744 261 723T283 672Q283 642 262 621T209 600ZM413 600Q382 600 361 621T339 672Q339 702 360 723T413 744Q444 744 465 723T487 672Q487 642 466 621T413 600Z" />
<glyph unicode="&#xfd;" glyph-name="yacute" horiz-adv-x="579" d="M228 53L20 523H176L303 209L420 523H559L276 -178H136L228 53ZM298 753H450L346 594H241L298 753Z" />
<glyph unicode="&#xfe;" glyph-name="thorn" horiz-adv-x="649" d="M70 760H215V441Q237 479 280 507T382 535Q430 535 471 518T544 466Q575 432 592 382T610 267V259Q610 194 593 144T545 60Q514 25 473 7T382 -11Q321 -11 278 15T215 80V-178H70V760ZM339 102Q399
102 431 141T463 258V266Q463 346 428 385T338 424Q281 424 246 385T210 266V258Q210 179 244 141T339 102Z" />
<glyph unicode="&#xff;" glyph-name="ydieresis" horiz-adv-x="579" d="M228 53L20 523H176L303 209L420 523H559L276 -178H136L228 53ZM197 600Q166 600 145 621T123 672Q123 702 144 723T197 744Q228 744 249 723T271 672Q271 642 250 621T197 600ZM401 600Q370
600 349 621T327 672Q327 702 348 723T401 744Q432 744 453 723T475 672Q475 642 454 621T401 600Z" />
<glyph unicode="&#x100;" glyph-name="Amacron" horiz-adv-x="720" d="M262 715H473L705 0H536L487 159H228L179 0H27L262 715ZM263 274H452L358 583L263 274ZM214 868H516V777H214V868Z" />
<glyph unicode="&#x101;" glyph-name="amacron" horiz-adv-x="564" d="M211 -11Q175 -11 144 -2T88 26Q64 45 50 74T36 145Q36 191 56 223T112 275Q148 295 198 304T308 313H367V334Q367 381 350 405T282 430Q239 430 219 410T193 356H56Q59 402 78 436T129 492Q160
514 201 524T291 535Q339 535 379 525T449 491Q478 468 494 431T510 341V0H369V63Q346 31 310 10T211 -11ZM254 90Q302 90 334 114T367 183V227H311Q248 227 213 211T178 153Q178 124 196 107T254 90ZM144 712H435V625H144V712Z" />
<glyph unicode="&#x102;" glyph-name="Abreve" horiz-adv-x="720" d="M262 715H473L705 0H536L487 159H228L179 0H27L262 715ZM263 274H452L358 583L263 274ZM364 757Q297 757 256 797T211 903H308Q312 879 325 865T364 851Q389 851 403 865T423 903H519Q514 837
472 797T364 757Z" />
<glyph unicode="&#x103;" glyph-name="abreve" horiz-adv-x="564" d="M211 -11Q175 -11 144 -2T88 26Q64 45 50 74T36 145Q36 191 56 223T112 275Q148 295 198 304T308 313H367V334Q367 381 350 405T282 430Q239 430 219 410T193 356H56Q59 402 78 436T129 492Q160
514 201 524T291 535Q339 535 379 525T449 491Q478 468 494 431T510 341V0H369V63Q346 31 310 10T211 -11ZM254 90Q302 90 334 114T367 183V227H311Q248 227 213 211T178 153Q178 124 196 107T254 90ZM289 598Q223 598 182 638T137 747H232Q235 722 249 708T289
693Q315 693 330 707T350 747H443Q439 678 396 638T289 598Z" />
<glyph unicode="&#x104;" glyph-name="Aogonek" horiz-adv-x="720" d="M618 -182Q564 -182 533 -161T501 -101Q501 -66 526 -41T584 0H530L481 159H222L173 0H21L256 715H467L696 10Q661 -10 645 -30T628 -69Q628 -99 661 -99Q684 -99 699 -92V-167Q685 -173 666
-177T618 -182ZM257 274H446L352 583L257 274Z" />
<glyph unicode="&#x105;" glyph-name="aogonek" horiz-adv-x="564" d="M430 -182Q379 -182 349 -161T318 -102Q318 -66 343 -41T401 0H363V63Q340 31 304 10T205 -11Q169 -11 138 -2T82 26T44 74T30 145Q30 191 50 223T106 275T192 304T302 313H361V334Q361 381
344 405T276 430Q233 430 213 410T187 356H50Q53 402 72 436T123 492T195 524T285 535Q333 535 373 525T442 491T488 431T504 341V8Q470 -14 455 -33T440 -71Q440 -102 473 -102Q496 -102 511 -95V-167Q497 -173 478 -177T430 -182ZM248 90Q296 90 328 114T361
183V227H305Q242 227 207 211T172 153Q172 124 190 107T248 90Z" />
<glyph unicode="&#x106;" glyph-name="Cacute" horiz-adv-x="748" d="M405 -11Q317 -11 250 15T138 89Q92 136 69 203T46 353V361Q46 442 73 509T148 625Q195 673 260 699T401 726Q465 726 520 710T618 662Q659 630 685 581T718 466H552Q543 531 507 564T402 598Q317
598 267 536T217 362V354Q217 242 265 181T403 120Q470 120 513 154T567 257H726Q719 191 693 141T625 57Q583 23 527 6T405 -11ZM391 902H548L447 763H338L391 902Z" />
<glyph unicode="&#x107;" glyph-name="cacute" horiz-adv-x="578" d="M307 -11Q250 -11 201 6T115 58Q79 92 59 141T38 255V263Q38 326 59 376T117 463Q154 498 203 516T308 535Q353 535 395 525T472 490Q505 466 527 427T554 332H417Q410 377 384 399T311 421Q254
421 220 381T186 265V257Q186 178 219 138T314 98Q358 98 389 123T426 199H557Q554 152 536 114T486 48Q454 20 409 5T307 -11ZM303 753H455L351 594H246L303 753Z" />
<glyph unicode="&#x108;" glyph-name="Ccircumflex" horiz-adv-x="748" d="M405 -11Q317 -11 250 15T138 89Q92 136 69 203T46 353V361Q46 442 73 509T148 625Q195 673 260 699T401 726Q465 726 520 710T618 662Q659 630 685 581T718 466H552Q543 531 507 564T402
598Q317 598 267 536T217 362V354Q217 242 265 181T403 120Q470 120 513 154T567 257H726Q719 191 693 141T625 57Q583 23 527 6T405 -11ZM340 902H463L571 763H467L399 816L330 763H228L340 902Z" />
<glyph unicode="&#x109;" glyph-name="ccircumflex" horiz-adv-x="578" d="M307 -11Q250 -11 201 6T115 58Q79 92 59 141T38 255V263Q38 326 59 376T117 463Q154 498 203 516T308 535Q353 535 395 525T472 490Q505 466 527 427T554 332H417Q410 377 384 399T311
421Q254 421 220 381T186 265V257Q186 178 219 138T314 98Q358 98 389 123T426 199H557Q554 152 536 114T486 48Q454 20 409 5T307 -11ZM252 751H361L475 595H373L304 658L234 595H135L252 751Z" />
<glyph unicode="&#x10a;" glyph-name="Cdotaccent" horiz-adv-x="748" d="M405 -11Q317 -11 250 15T138 89Q92 136 69 203T46 353V361Q46 442 73 509T148 625Q195 673 260 699T401 726Q465 726 520 710T618 662Q659 630 685 581T718 466H552Q543 531 507 564T402
598Q317 598 267 536T217 362V354Q217 242 265 181T403 120Q470 120 513 154T567 257H726Q719 191 693 141T625 57Q583 23 527 6T405 -11ZM398 768Q363 768 340 790T317 845Q317 877 340 899T398 922Q432 922 455 900T478 845Q478 813 455 791T398 768Z" />
<glyph unicode="&#x10b;" glyph-name="cdotaccent" horiz-adv-x="578" d="M307 -11Q250 -11 201 6T115 58Q79 92 59 141T38 255V263Q38 326 59 376T117 463Q154 498 203 516T308 535Q353 535 395 525T472 490Q505 466 527 427T554 332H417Q410 377 384 399T311
421Q254 421 220 381T186 265V257Q186 178 219 138T314 98Q358 98 389 123T426 199H557Q554 152 536 114T486 48Q454 20 409 5T307 -11ZM306 598Q271 598 248 620T225 675Q225 707 248 729T306 752Q340 752 363 730T386 675Q386 643 363 621T306 598Z" />
<glyph unicode="&#x10c;" glyph-name="Ccaron" horiz-adv-x="748" d="M405 -11Q317 -11 250 15T138 89Q92 136 69 203T46 353V361Q46 442 73 509T148 625Q195 673 260 699T401 726Q465 726 520 710T618 662Q659 630 685 581T718 466H552Q543 531 507 564T402 598Q317
598 267 536T217 362V354Q217 242 265 181T403 120Q470 120 513 154T567 257H726Q719 191 693 141T625 57Q583 23 527 6T405 -11ZM228 902H332L401 850L469 902H571L459 763H336L228 902Z" />
<glyph unicode="&#x10d;" glyph-name="ccaron" horiz-adv-x="578" d="M307 -11Q250 -11 201 6T115 58Q79 92 59 141T38 255V263Q38 326 59 376T117 463Q154 498 203 516T308 535Q353 535 395 525T472 490Q505 466 527 427T554 332H417Q410 377 384 399T311 421Q254
421 220 381T186 265V257Q186 178 219 138T314 98Q358 98 389 123T426 199H557Q554 152 536 114T486 48Q454 20 409 5T307 -11ZM135 751H237L306 688L375 751H475L358 595H249L135 751Z" />
<glyph unicode="&#x10e;" glyph-name="Dcaron" horiz-adv-x="726" d="M311 126Q420 126 471 184T523 355V363Q523 473 473 531T309 589H245V126H311ZM83 715H317Q411 715 481 691T599 621Q645 575 668 510T692 365V357Q692 277 669 211T598 98Q551 51 481 26T316
0H83V715ZM163 902H267L336 850L404 902H506L394 763H271L163 902Z" />
<glyph unicode="&#x10f;" glyph-name="dcaron" horiz-adv-x="637" d="M266 -11Q218 -11 177 6T105 57Q74 90 57 139T39 254V262Q39 326 56 377T105 463Q136 498 178 516T269 535Q332 535 372 510T434 445V760H578V0H434V87Q414 47 369 18T266 -11ZM309 102Q366
102 402 140T438 259V267Q438 345 406 384T313 424Q252 424 220 384T187 265V257Q187 179 221 141T309 102ZM629 760H748L699 586H619L629 760Z" />
<glyph unicode="&#x110;" glyph-name="Dcroat" horiz-adv-x="753" d="M31 415H96V715H330Q424 715 494 691T611 621T681 510T705 365V357Q705 277 682 211T611 98T494 26T329 0H96V303H31V415ZM324 126Q433 126 484 184T536 355V363Q536 474 486 531T323 589H256V415H407V303H256V126H324Z"
/>
<glyph unicode="&#x111;" glyph-name="dcroat" horiz-adv-x="637" d="M265 680H428V760H572V680H636V597H572V0H428V87Q408 47 363 18T260 -11Q212 -11 171 6T99 56T51 139T33 254V262Q33 326 50 377T99 463T172 516T263 535Q326 535 366 510T428 445V597H265V680ZM303
102Q360 102 396 140T432 259V267Q432 345 400 384T307 424Q246 424 214 384T181 265V257Q181 179 215 141T303 102Z" />
<glyph unicode="&#x112;" glyph-name="Emacron" horiz-adv-x="595" d="M83 715H549V589H244V422H488V304H244V126H565V0H83V715ZM172 868H474V777H172V868Z" />
<glyph unicode="&#x113;" glyph-name="emacron" horiz-adv-x="587" d="M311 -11Q252 -11 202 7T116 60Q79 94 59 143T38 255V263Q38 325 58 375T116 461Q152 496 201 515T307 535Q358 535 404 520T485 472Q520 440 541 390T562 269V229H185Q188 163 221 128T315
92Q366 92 391 112T424 165H561Q548 80 484 35T311 -11ZM421 318Q417 378 388 406T307 435Q258 435 227 405T187 318H421ZM158 712H449V625H158V712Z" />
<glyph unicode="&#x114;" glyph-name="Ebreve" horiz-adv-x="595" d="M83 715H549V589H244V422H488V304H244V126H565V0H83V715ZM324 757Q257 757 216 797T171 903H268Q272 879 285 865T324 851Q349 851 363 865T383 903H479Q474 837 432 797T324 757Z" />
<glyph unicode="&#x115;" glyph-name="ebreve" horiz-adv-x="587" d="M311 -11Q252 -11 202 7T116 60Q79 94 59 143T38 255V263Q38 325 58 375T116 461Q152 496 201 515T307 535Q358 535 404 520T485 472Q520 440 541 390T562 269V229H185Q188 163 221 128T315
92Q366 92 391 112T424 165H561Q548 80 484 35T311 -11ZM421 318Q417 378 388 406T307 435Q258 435 227 405T187 318H421ZM297 598Q231 598 190 638T145 747H240Q243 722 257 708T297 693Q323 693 338 707T358 747H451Q447 678 404 638T297 598Z" />
<glyph unicode="&#x116;" glyph-name="Edotaccent" horiz-adv-x="595" d="M83 715H549V589H244V422H488V304H244V126H565V0H83V715ZM323 768Q288 768 265 790T242 845Q242 877 265 899T323 922Q357 922 380 900T403 845Q403 813 380 791T323 768Z" />
<glyph unicode="&#x117;" glyph-name="edotaccent" horiz-adv-x="587" d="M311 -11Q252 -11 202 7T116 60Q79 94 59 143T38 255V263Q38 325 58 375T116 461Q152 496 201 515T307 535Q358 535 404 520T485 472Q520 440 541 390T562 269V229H185Q188 163 221 128T315
92Q366 92 391 112T424 165H561Q548 80 484 35T311 -11ZM421 318Q417 378 388 406T307 435Q258 435 227 405T187 318H421ZM305 598Q270 598 247 620T224 675Q224 707 247 729T305 752Q339 752 362 730T385 675Q385 643 362 621T305 598Z" />
<glyph unicode="&#x118;" glyph-name="Eogonek" horiz-adv-x="595" d="M462 -182Q409 -182 378 -161T347 -101Q347 -66 372 -41T430 0H77V715H543V589H238V422H482V304H238V126H559V0H525Q499 -19 487 -35T474 -69Q474 -99 507 -99Q530 -99 545 -92V-167Q531 -173
511 -177T462 -182Z" />
<glyph unicode="&#x119;" glyph-name="eogonek" horiz-adv-x="587" d="M399 -182Q348 -182 317 -162T286 -103Q286 -71 310 -48T363 -7Q350 -9 335 -10T305 -11Q246 -11 196 7T110 59T53 143T32 255V263Q32 325 52 375T109 460T195 515T301 535Q352 535 398 520T479
472T535 390T556 269V229H179Q182 163 215 128T309 92Q360 92 385 112T418 165H555Q551 138 542 117T522 80T499 51T476 28Q445 -1 426 -24T407 -71Q407 -87 416 -94T440 -102Q463 -102 478 -95V-167Q465 -173 447 -177T399 -182ZM415 318Q411 378 382 406T301
435Q252 435 221 405T181 318H415Z" />
<glyph unicode="&#x11a;" glyph-name="Ecaron" horiz-adv-x="595" d="M83 715H549V589H244V422H488V304H244V126H565V0H83V715ZM153 902H257L326 850L394 902H496L384 763H261L153 902Z" />
<glyph unicode="&#x11b;" glyph-name="ecaron" horiz-adv-x="587" d="M311 -11Q252 -11 202 7T116 60Q79 94 59 143T38 255V263Q38 325 58 375T116 461Q152 496 201 515T307 535Q358 535 404 520T485 472Q520 440 541 390T562 269V229H185Q188 163 221 128T315
92Q366 92 391 112T424 165H561Q548 80 484 35T311 -11ZM421 318Q417 378 388 406T307 435Q258 435 227 405T187 318H421ZM134 751H236L305 688L374 751H474L357 595H248L134 751Z" />
<glyph unicode="&#x11c;" glyph-name="Gcircumflex" horiz-adv-x="780" d="M410 -11Q322 -11 255 16T141 92Q94 140 70 206T46 353V361Q46 442 73 509T149 624Q197 672 264 699T410 726Q470 726 524 712T622 668Q665 637 693 590T728 476H567Q556 539 517 568T412
598Q318 598 267 534T215 359V351Q215 299 226 256T262 181Q286 149 323 132T414 114Q459 114 491 126T544 159Q565 179 575 206T586 265H425V383H746V307Q746 235 724 177T658 77Q615 35 553 12T410 -11ZM346 902H469L577 763H473L405 816L336 763H234L346 902Z"
/>
<glyph unicode="&#x11d;" glyph-name="gcircumflex" horiz-adv-x="636" d="M302 -193Q239 -193 192 -180T114 -143Q82 -119 65 -86T42 -11H186Q193 -46 219 -66T302 -87Q368 -87 401 -54T434 41V120Q423 101 407 84T368 53Q346 39 321 31T266 23Q218 23 177 40T105
90Q74 122 56 168T38 273V280Q38 336 55 383T104 464Q135 497 177 516T268 535Q332 535 371 510T434 445V523H578V41Q577 -76 505 -134T302 -193ZM309 132Q366 132 402 170T438 275V282Q438 349 405 387T312 425Q251 425 219 386T186 281V273Q186 207 220 170T309
132ZM254 751H363L477 595H375L306 658L236 595H137L254 751Z" />
<glyph unicode="&#x11e;" glyph-name="Gbreve" horiz-adv-x="780" d="M410 -11Q322 -11 255 16T141 92Q94 140 70 206T46 353V361Q46 442 73 509T149 624Q197 672 264 699T410 726Q470 726 524 712T622 668Q665 637 693 590T728 476H567Q556 539 517 568T412 598Q318
598 267 534T215 359V351Q215 299 226 256T262 181Q286 149 323 132T414 114Q459 114 491 126T544 159Q565 179 575 206T586 265H425V383H746V307Q746 235 724 177T658 77Q615 35 553 12T410 -11ZM405 757Q338 757 297 797T252 903H349Q353 879 366 865T405 851Q430
851 444 865T464 903H560Q555 837 513 797T405 757Z" />
<glyph unicode="&#x11f;" glyph-name="gbreve" horiz-adv-x="636" d="M302 -193Q239 -193 192 -180T114 -143Q82 -119 65 -86T42 -11H186Q193 -46 219 -66T302 -87Q368 -87 401 -54T434 41V120Q423 101 407 84T368 53Q346 39 321 31T266 23Q218 23 177 40T105
90Q74 122 56 168T38 273V280Q38 336 55 383T104 464Q135 497 177 516T268 535Q332 535 371 510T434 445V523H578V41Q577 -76 505 -134T302 -193ZM309 132Q366 132 402 170T438 275V282Q438 349 405 387T312 425Q251 425 219 386T186 281V273Q186 207 220 170T309
132ZM306 598Q240 598 199 638T154 747H249Q252 722 266 708T306 693Q332 693 347 707T367 747H460Q456 678 413 638T306 598Z" />
<glyph unicode="&#x120;" glyph-name="Gdotaccent" horiz-adv-x="780" d="M410 -11Q322 -11 255 16T141 92Q94 140 70 206T46 353V361Q46 442 73 509T149 624Q197 672 264 699T410 726Q470 726 524 712T622 668Q665 637 693 590T728 476H567Q556 539 517 568T412
598Q318 598 267 534T215 359V351Q215 299 226 256T262 181Q286 149 323 132T414 114Q459 114 491 126T544 159Q565 179 575 206T586 265H425V383H746V307Q746 235 724 177T658 77Q615 35 553 12T410 -11ZM406 768Q371 768 348 790T325 845Q325 877 348 899T406
922Q440 922 463 900T486 845Q486 813 463 791T406 768Z" />
<glyph unicode="&#x121;" glyph-name="gdotaccent" horiz-adv-x="636" d="M302 -193Q239 -193 192 -180T114 -143Q82 -119 65 -86T42 -11H186Q193 -46 219 -66T302 -87Q368 -87 401 -54T434 41V120Q423 101 407 84T368 53Q346 39 321 31T266 23Q218 23 177 40T105
90Q74 122 56 168T38 273V280Q38 336 55 383T104 464Q135 497 177 516T268 535Q332 535 371 510T434 445V523H578V41Q577 -76 505 -134T302 -193ZM309 132Q366 132 402 170T438 275V282Q438 349 405 387T312 425Q251 425 219 386T186 281V273Q186 207 220 170T309
132ZM307 598Q272 598 249 620T226 675Q226 707 249 729T307 752Q341 752 364 730T387 675Q387 643 364 621T307 598Z" />
<glyph unicode="&#x122;" glyph-name="Gcommaaccent" horiz-adv-x="780" d="M410 -11Q322 -11 255 16T141 92Q94 140 70 206T46 353V361Q46 442 73 509T149 624Q197 672 264 699T410 726Q470 726 524 712T622 668Q665 637 693 590T728 476H567Q556 539 517 568T412
598Q318 598 267 534T215 359V351Q215 299 226 256T262 181Q286 149 323 132T414 114Q459 114 491 126T544 159Q565 179 575 206T586 265H425V383H746V307Q746 235 724 177T658 77Q615 35 553 12T410 -11ZM302 -201L349 -31L479 -52L384 -228L302 -201Z" />
<glyph unicode="&#x123;" glyph-name="gcommaaccent" horiz-adv-x="636" d="M302 -193Q239 -193 192 -180T114 -143Q82 -119 65 -86T42 -11H186Q193 -46 219 -66T302 -87Q368 -87 401 -54T434 41V120Q423 101 407 84T368 53Q346 39 321 31T266 23Q218 23 177 40T105
90Q74 122 56 168T38 273V280Q38 336 55 383T104 464Q135 497 177 516T268 535Q332 535 371 510T434 445V523H578V41Q577 -76 505 -134T302 -193ZM309 132Q366 132 402 170T438 275V282Q438 349 405 387T312 425Q251 425 219 386T186 281V273Q186 207 220 170T309
132ZM244 600L339 775L421 749L374 579L244 600Z" />
<glyph unicode="&#x124;" glyph-name="Hcircumflex" horiz-adv-x="764" d="M83 715H245V423H532V715H694V0H532V295H245V0H83V715ZM328 902H451L559 763H455L387 816L318 763H216L328 902Z" />
<glyph unicode="&#x125;" glyph-name="hcircumflex" horiz-adv-x="615" d="M70 760H215V440Q235 479 277 507T385 535Q424 535 456 523T512 487Q535 462 548 424T561 333V0H416V312Q416 366 394 391T324 417Q277 417 246 389T215 302V0H70V760ZM261 937H384L492
798H388L320 851L251 798H149L261 937Z" />
<glyph unicode="&#x126;" glyph-name="Hbar" horiz-adv-x="764" d="M13 596H77V715H239V596H526V715H688V596H752V511H688V0H526V295H239V0H77V511H13V596ZM526 423V511H239V423H526Z" />
<glyph unicode="&#x127;" glyph-name="hbar" horiz-adv-x="615" d="M1 680H64V760H209V680H372V597H209V440Q229 479 271 507T379 535Q418 535 450 523T505 487T542 424T555 333V0H410V312Q410 366 388 391T318 417Q271 417 240 389T209 302V0H64V597H1V680Z" />
<glyph unicode="&#x128;" glyph-name="Itilde" horiz-adv-x="325" d="M87 715H250V0H87V715ZM488 764Q468 764 452 770T422 783Q408 789 396 795T373 801Q359 801 350 791T338 764H252Q257 833 289 868T366 904Q384 904 400 898T431 885Q445 878 457 872T482 866Q496
866 504 876T516 903H603Q597 834 564 799T488 764Z" />
<glyph unicode="&#x129;" glyph-name="itilde" horiz-adv-x="281" d="M74 523H218V0H74V523ZM464 598Q445 598 429 604T400 617L374 630Q362 636 351 636Q338 636 329 626T316 599H233Q238 668 268 704T343 740Q361 740 377 734T407 722Q421 715 433 709T458 703Q472
703 480 713T492 740H576Q570 670 539 634T464 598Z" />
<glyph unicode="&#x12a;" glyph-name="Imacron" horiz-adv-x="325" d="M87 715H250V0H87V715ZM274 868H576V777H274V868Z" />
<glyph unicode="&#x12b;" glyph-name="imacron" horiz-adv-x="281" d="M27 712H253V625H27V712ZM68 523H212V0H68V523Z" />
<glyph unicode="&#x12c;" glyph-name="Ibreve" horiz-adv-x="325" d="M87 715H250V0H87V715ZM426 757Q359 757 318 797T273 903H370Q374 879 387 865T426 851Q451 851 465 865T485 903H581Q576 837 534 797T426 757Z" />
<glyph unicode="&#x12d;" glyph-name="ibreve" horiz-adv-x="281" d="M74 523H218V0H74V523ZM403 598Q337 598 296 638T251 747H346Q349 722 363 708T403 693Q429 693 444 707T464 747H557Q553 678 510 638T403 598Z" />
<glyph unicode="&#x12e;" glyph-name="Iogonek" horiz-adv-x="325" d="M170 -182Q116 -182 85 -161T54 -101Q54 -66 79 -41T137 0H81V715H244V9Q181 -32 181 -69Q181 -99 214 -99Q237 -99 252 -92V-167Q238 -173 219 -177T170 -182Z" />
<glyph unicode="&#x12f;" glyph-name="iogonek" horiz-adv-x="281" d="M142 -182Q91 -182 61 -161T30 -101Q30 -66 55 -41T113 0H68V523H212V7Q179 -16 165 -34T151 -71Q151 -102 185 -102Q195 -102 204 -101T222 -95V-167Q209 -173 191 -177T142 -182ZM139 594Q104
594 81 616T57 673Q57 707 80 729T139 752Q174 752 198 730T222 673Q222 639 198 617T139 594Z" />
<glyph unicode="&#x130;" glyph-name="Idotaccent" horiz-adv-x="325" d="M87 715H250V0H87V715ZM426 768Q391 768 368 790T345 845Q345 877 368 899T426 922Q460 922 483 900T506 845Q506 813 483 791T426 768Z" />
<glyph unicode="&#x131;" glyph-name="dotlessi" horiz-adv-x="293" d="M74 523H218V0H74V523Z" />
<glyph unicode="&#x132;" glyph-name="IJ" horiz-adv-x="750" d="M87 715H250V0H87V715ZM453 -9Q406 -9 380 -3T334 13V137Q352 130 372 125T424 120Q470 120 497 145T525 233V715H688V231Q688 109 626 50T453 -9Z" />
<glyph unicode="&#x133;" glyph-name="ij" horiz-adv-x="281" d="M145 594Q110 594 87 616T63 673Q63 707 86 729T145 752Q180 752 204 730T228 673Q228 639 204 617T145 594ZM74 523H218V0H74V523ZM285 -79Q323 -76 338 -59T354 -10V523H498V-9Q498 -50 488 -82T453
-138Q428 -161 387 -173T285 -187V-79ZM425 594Q390 594 367 616T343 673Q343 707 366 729T425 752Q460 752 484 730T508 673Q508 639 484 617T425 594Z" />
<glyph unicode="&#x134;" glyph-name="Jcircumflex" horiz-adv-x="457" d="M160 -9Q113 -9 87 -3T41 13V137Q59 130 79 125T131 120Q177 120 204 145T232 233V715H395V231Q395 109 333 50T160 -9ZM251 902H374L482 763H378L310 816L241 763H139L251 902Z" />
<glyph unicode="&#x135;" glyph-name="jcircumflex" horiz-adv-x="281" d="M-1 -79Q37 -76 52 -59T68 -10V523H212V-9Q212 -50 202 -82T167 -138T101 -173T-1 -187V-79ZM350 751H459L573 595H471L402 658L332 595H233L350 751Z" />
<glyph unicode="&#x136;" glyph-name="Kcommaaccent" horiz-adv-x="686" d="M83 715H245V407L495 716H667L384 377L681 0H492L245 321V0H83V715ZM256 -201L303 -31L433 -52L338 -228L256 -201Z" />
<glyph unicode="&#x137;" glyph-name="kcommaaccent" d="M70 760H215V302L383 523H537L347 285L552 0H388L215 247V0H70V760ZM192 -201L239 -31L369 -52L274 -228L192 -201Z" />
<glyph unicode="&#x139;" glyph-name="Lacute" horiz-adv-x="560" d="M83 715H245V127H536V0H83V715ZM415 902H572L471 763H362L415 902Z" />
<glyph unicode="&#x13a;" glyph-name="lacute" horiz-adv-x="280" d="M74 760H218V0H74V760ZM397 937H554L453 798H344L397 937Z" />
<glyph unicode="&#x13b;" glyph-name="Lcommaaccent" horiz-adv-x="560" d="M83 715H245V127H536V0H83V715ZM204 -201L251 -31L381 -52L286 -228L204 -201Z" />
<glyph unicode="&#x13c;" glyph-name="lcommaaccent" horiz-adv-x="280" d="M74 760H218V0H74V760ZM300 -201L347 -31L477 -52L382 -228L300 -201Z" />
<glyph unicode="&#x13d;" glyph-name="Lcaron" horiz-adv-x="560" d="M344 715H472L412 546H325L344 715ZM77 715H239V127H530V0H77V715Z" />
<glyph unicode="&#x13e;" glyph-name="lcaron" horiz-adv-x="280" d="M74 760H218V0H74V760ZM269 760H388L339 586H259L269 760Z" />
<glyph unicode="&#x13f;" glyph-name="Ldot" horiz-adv-x="577" d="M83 715H245V127H536V0H83V715Z" />
<glyph unicode="&#x140;" glyph-name="ldot" horiz-adv-x="409" d="M74 760H218V0H74V760Z" />
<glyph unicode="&#x141;" glyph-name="Lslash" horiz-adv-x="591" d="M37 330L102 353V715H264V410L451 477V383L264 317V127H555V0H102V260L37 237V330Z" />
<glyph unicode="&#x142;" glyph-name="lslash" horiz-adv-x="325" d="M24 378L90 411V760H234V485L304 521V422L234 386V0H90V312L24 279V378Z" />
<glyph unicode="&#x143;" glyph-name="Nacute" horiz-adv-x="758" d="M83 715H271L543 244V715H687V0H525L227 509V0H83V715ZM391 902H548L447 763H338L391 902Z" />
<glyph unicode="&#x144;" glyph-name="nacute" horiz-adv-x="615" d="M70 523H215V440Q235 479 277 507T385 535Q424 535 456 523T512 487Q535 462 548 424T561 333V0H416V312Q416 366 394 391T324 417Q277 417 246 389T215 302V0H70V523ZM312 753H464L360 594H255L312
753Z" />
<glyph unicode="&#x145;" glyph-name="Ncommaaccent" horiz-adv-x="758" d="M83 715H271L543 244V715H687V0H525L227 509V0H83V715ZM274 -201L321 -31L451 -52L356 -228L274 -201Z" />
<glyph unicode="&#x146;" glyph-name="ncommaaccent" horiz-adv-x="615" d="M70 523H215V440Q235 479 277 507T385 535Q424 535 456 523T512 487Q535 462 548 424T561 333V0H416V312Q416 366 394 391T324 417Q277 417 246 389T215 302V0H70V523ZM209 -201L256
-31L386 -52L291 -228L209 -201Z" />
<glyph unicode="&#x147;" glyph-name="Ncaron" horiz-adv-x="758" d="M83 715H271L543 244V715H687V0H525L227 509V0H83V715ZM228 902H332L401 850L469 902H571L459 763H336L228 902Z" />
<glyph unicode="&#x148;" glyph-name="ncaron" horiz-adv-x="615" d="M70 523H215V440Q235 479 277 507T385 535Q424 535 456 523T512 487Q535 462 548 424T561 333V0H416V312Q416 366 394 391T324 417Q277 417 246 389T215 302V0H70V523ZM143 751H245L314 688L383
751H483L366 595H257L143 751Z" />
<glyph unicode="&#x149;" glyph-name="napostrophe" horiz-adv-x="690" d="M145 523H290V440Q310 479 352 507T460 535Q499 535 531 523T587 487Q610 462 623 424T636 333V0H491V312Q491 366 469 391T399 417Q352 417 321 389T290 302V0H145V523Z" />
<glyph unicode="&#x14a;" glyph-name="Eng" horiz-adv-x="758" d="M456 -193Q411 -193 386 -187T341 -171V-52Q359 -59 377 -64T425 -69Q465 -69 490 -50T520 10L224 519V0H77V715H267L534 246V715H681V18Q681 -83 622 -138T456 -193Z" />
<glyph unicode="&#x14b;" glyph-name="eng" horiz-adv-x="615" d="M342 -79Q380 -76 395 -59T410 -10V312Q410 366 388 391T318 417Q271 417 240 389T209 302V0H64V523H209V440Q229 479 271 507T379 535Q418 535 450 523T505 487T542 424T555 333V-9Q555 -50 545
-82T510 -138T444 -173T342 -187V-79Z" />
<glyph unicode="&#x14c;" glyph-name="Omacron" horiz-adv-x="816" d="M416 118Q461 118 497 135T560 183Q585 213 599 257T613 355V363Q613 415 600 458T561 532Q535 563 498 580T414 597Q367 597 331 581T268 534Q242 503 229 460T215 362V354Q215 299 230 256T272
182Q298 151 335 135T416 118ZM413 -11Q329 -11 261 16T146 93Q98 141 72 208T46 353V361Q46 441 73 508T151 623Q200 671 267 698T414 725Q495 725 562 699T679 626Q727 578 754 512T782 365V357Q782 277 756 210T681 93Q633 44 565 17T413 -11ZM262 868H564V777H262V868Z"
/>
<glyph unicode="&#x14d;" glyph-name="omacron" horiz-adv-x="616" d="M314 99Q375 99 408 141T442 258V265Q442 340 409 382T314 425Q254 425 220 384T186 267V259Q186 184 219 142T314 99ZM313 -11Q254 -11 204 8T117 62Q80 96 59 145T38 256V264Q38 325 59
375T117 461Q154 496 204 515T314 535Q373 535 423 516T511 462Q547 427 568 378T589 267V259Q589 197 568 147T510 62Q473 27 423 8T313 -11ZM167 712H458V625H167V712Z" />
<glyph unicode="&#x14e;" glyph-name="Obreve" horiz-adv-x="816" d="M416 118Q461 118 497 135T560 183Q585 213 599 257T613 355V363Q613 415 600 458T561 532Q535 563 498 580T414 597Q367 597 331 581T268 534Q242 503 229 460T215 362V354Q215 299 230 256T272
182Q298 151 335 135T416 118ZM413 -11Q329 -11 261 16T146 93Q98 141 72 208T46 353V361Q46 441 73 508T151 623Q200 671 267 698T414 725Q495 725 562 699T679 626Q727 578 754 512T782 365V357Q782 277 756 210T681 93Q633 44 565 17T413 -11ZM412 757Q345 757
304 797T259 903H356Q360 879 373 865T412 851Q437 851 451 865T471 903H567Q562 837 520 797T412 757Z" />
<glyph unicode="&#x14f;" glyph-name="obreve" horiz-adv-x="616" d="M314 99Q375 99 408 141T442 258V265Q442 340 409 382T314 425Q254 425 220 384T186 267V259Q186 184 219 142T314 99ZM313 -11Q254 -11 204 8T117 62Q80 96 59 145T38 256V264Q38 325 59 375T117
461Q154 496 204 515T314 535Q373 535 423 516T511 462Q547 427 568 378T589 267V259Q589 197 568 147T510 62Q473 27 423 8T313 -11ZM312 598Q246 598 205 638T160 747H255Q258 722 272 708T312 693Q338 693 353 707T373 747H466Q462 678 419 638T312 598Z" />
<glyph unicode="&#x150;" glyph-name="Ohungarumlaut" horiz-adv-x="816" d="M416 118Q461 118 497 135T560 183Q585 213 599 257T613 355V363Q613 415 600 458T561 532Q535 563 498 580T414 597Q367 597 331 581T268 534Q242 503 229 460T215 362V354Q215 299
230 256T272 182Q298 151 335 135T416 118ZM413 -11Q329 -11 261 16T146 93Q98 141 72 208T46 353V361Q46 441 73 508T151 623Q200 671 267 698T414 725Q495 725 562 699T679 626Q727 578 754 512T782 365V357Q782 277 756 210T681 93Q633 44 565 17T413 -11ZM304
902H436L363 763H265L304 902ZM484 902H616L542 763H445L484 902Z" />
<glyph unicode="&#x151;" glyph-name="ohungarumlaut" horiz-adv-x="616" d="M314 99Q375 99 408 141T442 258V265Q442 340 409 382T314 425Q254 425 220 384T186 267V259Q186 184 219 142T314 99ZM313 -11Q254 -11 204 8T117 62Q80 96 59 145T38 256V264Q38 325
59 375T117 461Q154 496 204 515T314 535Q373 535 423 516T511 462Q547 427 568 378T589 267V259Q589 197 568 147T510 62Q473 27 423 8T313 -11ZM217 753H340L264 594H175L217 753ZM385 753H509L433 594H343L385 753Z" />
<glyph unicode="&#x152;" glyph-name="OE" horiz-adv-x="982" d="M46 358Q46 438 69 504T140 617Q187 664 257 689T421 715H924V589H635V422H863V304H635V126H941V0H420Q327 0 257 24T140 95Q93 140 70 205T46 350V358ZM426 589Q317 589 266 531T215 360V352Q215
242 265 184T428 126H474V589H426Z" />
<glyph unicode="&#x153;" glyph-name="oe" horiz-adv-x="1001" d="M313 -11Q254 -11 204 8T117 62Q80 96 59 145T38 256V264Q38 325 59 375T117 461Q154 496 204 515T314 535Q379 535 430 511T514 443Q547 487 596 511T709 535Q760 535 806 520T887 472Q922 440
943 390T964 269V229H586Q590 163 623 128T717 92Q768 92 793 112T825 165H962Q950 80 886 35T713 -11Q647 -11 596 12T512 79Q478 35 428 12T313 -11ZM314 99Q375 99 408 141T442 258V265Q442 340 409 382T314 425Q254 425 220 384T186 267V259Q186 183 219 141T314
99ZM822 318Q818 378 789 406T709 435Q660 435 629 405T589 318H822Z" />
<glyph unicode="&#x154;" glyph-name="Racute" horiz-adv-x="672" d="M83 715H339Q402 715 453 702T540 662Q576 635 595 594T615 498V494Q615 453 604 422T573 368Q553 345 526 329T468 304L657 0H485L314 276H244V0H83V715ZM335 386Q396 386 426 412T457 489V493Q457
548 426 569T335 591H244V386H335ZM324 902H481L380 763H271L324 902Z" />
<glyph unicode="&#x155;" glyph-name="racute" horiz-adv-x="409" d="M70 523H215V423Q240 476 280 503T384 531V396Q303 397 259 367T215 262V0H70V523ZM228 753H380L276 594H171L228 753Z" />
<glyph unicode="&#x156;" glyph-name="Rcommaaccent" horiz-adv-x="672" d="M83 715H339Q402 715 453 702T540 662Q576 635 595 594T615 498V494Q615 453 604 422T573 368Q553 345 526 329T468 304L657 0H485L314 276H244V0H83V715ZM335 386Q396 386 426 412T457
489V493Q457 548 426 569T335 591H244V386H335ZM248 -201L295 -31L425 -52L330 -228L248 -201Z" />
<glyph unicode="&#x157;" glyph-name="rcommaaccent" horiz-adv-x="409" d="M70 523H215V423Q240 476 280 503T384 531V396Q303 397 259 367T215 262V0H70V523ZM297 -201L344 -31L474 -52L379 -228L297 -201Z" />
<glyph unicode="&#x158;" glyph-name="Rcaron" horiz-adv-x="672" d="M83 715H339Q402 715 453 702T540 662Q576 635 595 594T615 498V494Q615 453 604 422T573 368Q553 345 526 329T468 304L657 0H485L314 276H244V0H83V715ZM335 386Q396 386 426 412T457 489V493Q457
548 426 569T335 591H244V386H335ZM161 902H265L334 850L402 902H504L392 763H269L161 902Z" />
<glyph unicode="&#x159;" glyph-name="rcaron" horiz-adv-x="409" d="M70 523H215V423Q240 476 280 503T384 531V396Q303 397 259 367T215 262V0H70V523ZM59 751H161L230 688L299 751H399L282 595H173L59 751Z" />
<glyph unicode="&#x15a;" glyph-name="Sacute" horiz-adv-x="640" d="M333 -11Q259 -11 205 5T115 53Q79 84 60 127T38 224H193Q196 200 203 179T226 142Q242 126 267 117T333 107Q387 107 419 133T451 202Q451 223 445 238T423 264Q407 274 381 281T316 295Q247
304 199 319T119 361Q87 386 73 423T58 512Q58 558 76 597T129 665Q163 693 211 709T318 725Q439 725 507 672T586 511H437Q430 559 400 582T318 606Q264 606 238 584T211 525Q211 506 216 492T237 467Q251 456 277 448T344 434Q409 426 458 412T540 373Q573 348
589 310T606 217Q606 169 587 128T533 56Q498 25 447 7T333 -11ZM311 902H468L367 763H258L311 902Z" />
<glyph unicode="&#x15b;" glyph-name="sacute" horiz-adv-x="502" d="M260 -11Q154 -11 95 34T32 164H167Q172 129 191 110T259 90Q301 90 321 105T341 147Q341 174 317 187T235 209Q183 217 147 229T87 260Q63 279 53 306T42 372Q42 413 59 443T106 495Q134 515
171 525T249 535Q292 535 329 527T396 499Q424 480 442 449T465 373H332Q326 405 307 420T250 436Q215 436 196 421T176 382Q176 357 198 345T277 325Q326 318 364 307T428 278Q453 259 466 231T480 161Q480 76 422 33T260 -11ZM254 753H406L302 594H197L254 753Z"
/>
<glyph unicode="&#x15c;" glyph-name="Scircumflex" horiz-adv-x="640" d="M333 -11Q259 -11 205 5T115 53Q79 84 60 127T38 224H193Q196 200 203 179T226 142Q242 126 267 117T333 107Q387 107 419 133T451 202Q451 223 445 238T423 264Q407 274 381 281T316
295Q247 304 199 319T119 361Q87 386 73 423T58 512Q58 558 76 597T129 665Q163 693 211 709T318 725Q439 725 507 672T586 511H437Q430 559 400 582T318 606Q264 606 238 584T211 525Q211 506 216 492T237 467Q251 456 277 448T344 434Q409 426 458 412T540 373Q573
348 589 310T606 217Q606 169 587 128T533 56Q498 25 447 7T333 -11ZM260 902H383L491 763H387L319 816L250 763H148L260 902Z" />
<glyph unicode="&#x15d;" glyph-name="scircumflex" horiz-adv-x="502" d="M260 -11Q154 -11 95 34T32 164H167Q172 129 191 110T259 90Q301 90 321 105T341 147Q341 174 317 187T235 209Q183 217 147 229T87 260Q63 279 53 306T42 372Q42 413 59 443T106 495Q134
515 171 525T249 535Q292 535 329 527T396 499Q424 480 442 449T465 373H332Q326 405 307 420T250 436Q215 436 196 421T176 382Q176 357 198 345T277 325Q326 318 364 307T428 278Q453 259 466 231T480 161Q480 76 422 33T260 -11ZM201 751H310L424 595H322L253
658L183 595H84L201 751Z" />
<glyph unicode="&#x15e;" glyph-name="Scedilla" horiz-adv-x="640" d="M299 -222Q248 -222 218 -198T182 -132H256Q258 -144 267 -153T294 -163Q311 -163 320 -154T329 -130Q329 -116 320 -108T295 -99Q284 -99 277 -102T264 -109L228 -74L268 -8Q152 5 95 66T32
224H187Q190 200 197 179T220 142T261 117T327 107Q381 107 413 133T445 202Q445 223 439 238T417 263T375 281T310 295Q241 304 193 319T113 360T67 423T52 512Q52 558 70 597T123 664T205 709T312 725Q433 725 501 672T580 511H431Q416 606 312 606Q258 606 232
584T205 525Q205 506 210 492T230 467T271 448T338 434Q403 426 452 412T534 373T583 310T600 217Q600 170 582 129T528 57T444 8T331 -11L309 -48Q329 -46 347 -50T380 -64T404 -91T413 -132Q413 -176 381 -199T299 -222Z" />
<glyph unicode="&#x15f;" glyph-name="scedilla" horiz-adv-x="502" d="M235 -222Q184 -222 154 -198T118 -132H192Q194 -144 203 -153T230 -163Q247 -163 256 -154T265 -130Q265 -116 256 -108T231 -99Q220 -99 213 -102T200 -109L164 -74L204 -8Q121 2 75 45T26
164H161Q166 129 185 110T253 90Q295 90 315 105T335 147Q335 174 311 187T229 209Q177 217 141 229T81 260T47 306T36 372Q36 413 53 443T99 494T165 525T243 535Q286 535 323 527T389 499T436 449T459 373H326Q320 405 301 420T244 436Q209 436 190 421T170 382Q170
357 192 345T271 325Q320 318 358 307T421 278T460 231T474 161Q474 79 420 36T267 -11L245 -48Q265 -46 283 -50T316 -64T340 -91T349 -132Q349 -176 317 -199T235 -222Z" />
<glyph unicode="&#x160;" glyph-name="Scaron" horiz-adv-x="652" d="M333 -11Q259 -11 205 5T115 53Q79 84 60 127T38 224H193Q196 200 203 179T226 142Q242 126 267 117T333 107Q387 107 419 133T451 202Q451 223 445 238T423 264Q407 274 381 281T316 295Q247
304 199 319T119 361Q87 386 73 423T58 512Q58 558 76 597T129 665Q163 693 211 709T318 725Q439 725 507 672T586 511H437Q430 559 400 582T318 606Q264 606 238 584T211 525Q211 506 216 492T237 467Q251 456 277 448T344 434Q409 426 458 412T540 373Q573 348
589 310T606 217Q606 169 587 128T533 56Q498 25 447 7T333 -11ZM148 902H252L321 850L389 902H491L379 763H256L148 902Z" />
<glyph unicode="&#x161;" glyph-name="scaron" horiz-adv-x="514" d="M260 -11Q154 -11 95 34T32 164H167Q172 129 191 110T259 90Q301 90 321 105T341 147Q341 174 317 187T235 209Q183 217 147 229T87 260Q63 279 53 306T42 372Q42 413 59 443T106 495Q134 515
171 525T249 535Q292 535 329 527T396 499Q424 480 442 449T465 373H332Q326 405 307 420T250 436Q215 436 196 421T176 382Q176 357 198 345T277 325Q326 318 364 307T428 278Q453 259 466 231T480 161Q480 76 422 33T260 -11ZM82 751H184L253 688L322 751H422L305
595H196L82 751Z" />
<glyph unicode="&#x162;" glyph-name="Tcommaaccent" horiz-adv-x="598" d="M223 589H30V715H579V589H386V0H223V589ZM200 -201L247 -31L377 -52L282 -228L200 -201Z" />
<glyph unicode="&#x163;" glyph-name="tcommaaccent" horiz-adv-x="377" d="M261 -10Q178 -10 135 31T92 155V420H25V523H92V636H236V523H346V420H236V168Q236 137 250 122T294 106Q310 106 323 108T349 116V4Q334 -1 312 -5T261 -10ZM362 -201L409 -31L539 -52L444
-228L362 -201Z" />
<glyph unicode="&#x164;" glyph-name="Tcaron" horiz-adv-x="597" d="M223 589H30V715H579V589H386V0H223V589ZM132 902H236L305 850L373 902H475L363 763H240L132 902Z" />
<glyph unicode="&#x165;" glyph-name="tcaron" horiz-adv-x="377" d="M261 -10Q178 -10 135 31T92 155V420H25V523H92V636H236V523H346V420H236V168Q236 137 250 122T294 106Q310 106 323 108T349 116V4Q334 -1 312 -5T261 -10ZM301 760H420L371 586H291L301 760Z" />
<glyph unicode="&#x166;" glyph-name="Tbar" horiz-adv-x="597" d="M84 406H217V589H24V715H573V589H380V406H513V300H380V0H217V300H84V406Z" />
<glyph unicode="&#x167;" glyph-name="tbar" horiz-adv-x="377" d="M19 335H86V420H19V523H86V636H230V523H340V420H230V335H340V250H230V168Q230 106 288 106Q319 106 343 115V3Q327 -2 306 -6T254 -10Q172 -10 129 31T86 155V250H19V335Z" />
<glyph unicode="&#x168;" glyph-name="Utilde" horiz-adv-x="739" d="M372 -11Q230 -11 154 62T77 279V715H240V289Q240 199 269 159T373 118Q445 118 478 157T511 295V715H674V285Q674 138 596 64T372 -11ZM435 764Q415 764 399 770T369 783Q355 789 343 795T320
801Q306 801 297 791T285 764H199Q204 833 236 868T313 904Q331 904 347 898T378 885Q392 878 404 872T429 866Q443 866 451 876T463 903H550Q544 834 511 799T435 764Z" />
<glyph unicode="&#x169;" glyph-name="utilde" horiz-adv-x="612" d="M244 -11Q206 -11 174 0T117 36Q93 60 80 97T66 186V523H210V206Q210 154 233 128T301 101Q347 101 378 129T410 216V523H554V0H410V82Q390 42 350 16T244 -11ZM371 598Q352 598 336 604T307
617L281 630Q269 636 258 636Q245 636 236 626T223 599H140Q145 668 175 704T250 740Q268 740 284 734T314 722Q328 715 340 709T365 703Q379 703 387 713T399 740H483Q477 670 446 634T371 598Z" />
<glyph unicode="&#x16a;" glyph-name="Umacron" horiz-adv-x="739" d="M372 -11Q230 -11 154 62T77 279V715H240V289Q240 199 269 159T373 118Q445 118 478 157T511 295V715H674V285Q674 138 596 64T372 -11ZM223 868H525V777H223V868Z" />
<glyph unicode="&#x16b;" glyph-name="umacron" horiz-adv-x="612" d="M244 -11Q206 -11 174 0T117 36Q93 60 80 97T66 186V523H210V206Q210 154 233 128T301 101Q347 101 378 129T410 216V523H554V0H410V82Q390 42 350 16T244 -11ZM165 712H456V625H165V712Z" />
<glyph unicode="&#x16c;" glyph-name="Ubreve" horiz-adv-x="739" d="M372 -11Q230 -11 154 62T77 279V715H240V289Q240 199 269 159T373 118Q445 118 478 157T511 295V715H674V285Q674 138 596 64T372 -11ZM373 757Q306 757 265 797T220 903H317Q321 879 334
865T373 851Q398 851 412 865T432 903H528Q523 837 481 797T373 757Z" />
<glyph unicode="&#x16d;" glyph-name="ubreve" horiz-adv-x="612" d="M244 -11Q206 -11 174 0T117 36Q93 60 80 97T66 186V523H210V206Q210 154 233 128T301 101Q347 101 378 129T410 216V523H554V0H410V82Q390 42 350 16T244 -11ZM310 598Q244 598 203 638T158
747H253Q256 722 270 708T310 693Q336 693 351 707T371 747H464Q460 678 417 638T310 598Z" />
<glyph unicode="&#x16e;" glyph-name="Uring" horiz-adv-x="739" d="M372 -11Q230 -11 154 62T77 279V715H240V289Q240 199 269 159T373 118Q445 118 478 157T511 295V715H674V285Q674 138 596 64T372 -11ZM374 789Q395 789 409 804T423 842Q423 865 409 880T374
896Q352 896 339 881T325 842Q325 819 338 804T374 789ZM374 731Q350 731 330 740T293 764Q277 779 268 799T259 842Q259 865 268 885T293 921Q309 936 329 945T374 954Q398 954 418 945T455 921Q471 906 480 886T489 842Q489 819 480 799T455 764Q439 749 419
740T374 731Z" />
<glyph unicode="&#x16f;" glyph-name="uring" horiz-adv-x="612" d="M244 -11Q206 -11 174 0T117 36Q93 60 80 97T66 186V523H210V206Q210 154 233 128T301 101Q347 101 378 129T410 216V523H554V0H410V82Q390 42 350 16T244 -11ZM310 875Q331 875 345 890T359
928Q359 951 345 966T310 982Q288 982 275 967T261 928Q261 905 274 890T310 875ZM310 817Q286 817 266 826T229 850Q213 865 204 885T195 928Q195 951 204 971T229 1007Q245 1022 265 1031T310 1040Q334 1040 354 1031T391 1007Q407 992 416 972T425 928Q425 905
416 885T391 850Q375 835 355 826T310 817Z" />
<glyph unicode="&#x170;" glyph-name="Uhungarumlaut" horiz-adv-x="739" d="M372 -11Q230 -11 154 62T77 279V715H240V289Q240 199 269 159T373 118Q445 118 478 157T511 295V715H674V285Q674 138 596 64T372 -11ZM265 902H397L324 763H226L265 902ZM445 902H577L503
763H406L445 902Z" />
<glyph unicode="&#x171;" glyph-name="uhungarumlaut" horiz-adv-x="612" d="M244 -11Q206 -11 174 0T117 36Q93 60 80 97T66 186V523H210V206Q210 154 233 128T301 101Q347 101 378 129T410 216V523H554V0H410V82Q390 42 350 16T244 -11ZM215 753H338L262 594H173L215
753ZM383 753H507L431 594H341L383 753Z" />
<glyph unicode="&#x172;" glyph-name="Uogonek" horiz-adv-x="739" d="M407 -182Q355 -182 324 -161T293 -102Q293 -73 311 -50T356 -11Q219 -9 145 64T71 279V715H234V289Q234 199 263 159T367 118Q439 118 472 157T505 295V715H668V285Q668 182 630 116T521
18Q500 8 482 -1T449 -19T427 -41T419 -69Q419 -84 428 -91T452 -99Q475 -99 490 -92V-167Q477 -173 457 -177T407 -182Z" />
<glyph unicode="&#x173;" glyph-name="uogonek" horiz-adv-x="612" d="M476 -182Q425 -182 395 -161T364 -101Q364 -66 389 -41T447 0H404V82Q384 42 344 16T238 -11Q200 -11 168 0T111 36T74 97T60 186V523H204V206Q204 101 295 101Q341 101 372 129T404 216V523H548V9Q514
-15 500 -33T485 -71Q485 -102 519 -102Q529 -102 538 -101T556 -95V-167Q543 -173 524 -177T476 -182Z" />
<glyph unicode="&#x174;" glyph-name="Wcircumflex" horiz-adv-x="971" d="M27 715H191L303 221L425 715H563L690 218L806 715H956L782 0H617L488 494L357 0H201L27 715ZM432 902H555L663 763H559L491 816L422 763H320L432 902Z" />
<glyph unicode="&#x175;" glyph-name="wcircumflex" horiz-adv-x="826" d="M22 523H174L267 171L368 523H487L579 171L678 523H817L652 0H510L421 328L325 0H181L22 523ZM365 751H474L588 595H486L417 658L347 595H248L365 751Z" />
<glyph unicode="&#x176;" glyph-name="Ycircumflex" horiz-adv-x="648" d="M255 308L19 715H197L342 441L484 715H641L418 308V0H255V308ZM274 902H397L505 763H401L333 816L264 763H162L274 902Z" />
<glyph unicode="&#x177;" glyph-name="ycircumflex" horiz-adv-x="567" d="M228 53L20 523H176L303 209L420 523H559L276 -178H136L228 53ZM241 751H350L464 595H362L293 658L223 595H124L241 751Z" />
<glyph unicode="&#x178;" glyph-name="Ydieresis" horiz-adv-x="660" d="M255 308L19 715H197L342 441L484 715H641L418 308V0H255V308ZM226 769Q195 769 174 790T152 842Q152 872 173 893T226 914Q256 914 278 893T300 842Q300 812 278 791T226 769ZM441 769Q411
769 390 790T368 842Q368 872 389 893T441 914Q472 914 493 893T515 842Q515 812 494 791T441 769Z" />
<glyph unicode="&#x179;" glyph-name="Zacute" horiz-adv-x="615" d="M24 20L365 589H62V715H594V696L260 127H582V0H24V20ZM308 902H465L364 763H255L308 902Z" />
<glyph unicode="&#x17a;" glyph-name="zacute" horiz-adv-x="499" d="M20 16L278 411H46V523H488V505L228 112H478V0H20V16ZM260 753H412L308 594H203L260 753Z" />
<glyph unicode="&#x17b;" glyph-name="Zdotaccent" horiz-adv-x="615" d="M24 20L365 589H62V715H594V696L260 127H582V0H24V20ZM318 768Q283 768 260 790T237 845Q237 877 260 899T318 922Q352 922 375 900T398 845Q398 813 375 791T318 768Z" />
<glyph unicode="&#x17c;" glyph-name="zdotaccent" horiz-adv-x="499" d="M20 16L278 411H46V523H488V505L228 112H478V0H20V16ZM262 598Q227 598 204 620T181 675Q181 707 204 729T262 752Q296 752 319 730T342 675Q342 643 319 621T262 598Z" />
<glyph unicode="&#x17d;" glyph-name="Zcaron" horiz-adv-x="627" d="M24 20L365 589H62V715H594V696L260 127H582V0H24V20ZM145 902H249L318 850L386 902H488L376 763H253L145 902Z" />
<glyph unicode="&#x17e;" glyph-name="zcaron" horiz-adv-x="511" d="M20 16L278 411H46V523H488V505L228 112H478V0H20V16ZM91 751H193L262 688L331 751H431L314 595H205L91 751Z" />
<glyph unicode="&#x192;" glyph-name="florin" horiz-adv-x="441" d="M31 414H124L144 548Q157 641 209 682T345 724Q369 724 386 722T420 713V603Q409 607 396 609T363 612Q328 612 310 592T286 537L268 414H388V312H253L181 -182H37L109 312H31V414Z" />
<glyph unicode="&#x1fa;" glyph-name="Aringacute" horiz-adv-x="720" d="M262 715H473L705 0H536L487 159H228L179 0H27L262 715ZM263 274H452L358 583L263 274ZM370 804Q391 804 405 819T419 857Q419 880 405 895T370 911Q348 911 335 896T321 857Q321 834 334
819T370 804ZM370 746Q346 746 326 755T289 779Q273 794 264 814T255 857Q255 880 264 900T289 936Q305 951 325 960T370 969Q394 969 414 960T451 936Q467 921 476 901T485 857Q485 834 476 814T451 779Q435 764 415 755T370 746ZM367 1128H524L423 989H314L367
1128Z" />
<glyph unicode="&#x1fb;" glyph-name="aringacute" horiz-adv-x="564" d="M211 -11Q175 -11 144 -2T88 26Q64 45 50 74T36 145Q36 191 56 223T112 275Q148 295 198 304T308 313H367V334Q367 381 350 405T282 430Q239 430 219 410T193 356H56Q59 402 78 436T129
492Q160 514 201 524T291 535Q339 535 379 525T449 491Q478 468 494 431T510 341V0H369V63Q346 31 310 10T211 -11ZM254 90Q302 90 334 114T367 183V227H311Q248 227 213 211T178 153Q178 124 196 107T254 90ZM292 889Q313 889 327 904T341 942Q341 965 327 980T292
996Q270 996 257 981T243 942Q243 919 256 904T292 889ZM292 831Q268 831 248 840T211 864Q195 879 186 899T177 942Q177 965 186 985T211 1021Q227 1036 247 1045T292 1054Q316 1054 336 1045T373 1021Q389 1006 398 986T407 942Q407 919 398 899T373 864Q357
849 337 840T292 831ZM294 967H451L350 828H241L294 967Z" />
<glyph unicode="&#x1fc;" glyph-name="AEacute" horiz-adv-x="983" d="M363 715H937V589H637V422H876V304H637V126H954V0H475V168H257L180 0H23L363 715ZM309 280H475V589H451L309 280ZM609 902H766L665 763H556L609 902Z" />
<glyph unicode="&#x1fd;" glyph-name="aeacute" horiz-adv-x="898" d="M629 -11Q560 -11 510 13T428 86Q394 38 346 14T222 -11Q184 -11 150 -2T91 26Q65 45 51 74T36 145Q36 191 56 223T112 277Q147 297 196 306T306 316H368V334Q368 381 350 405T283 430Q239
430 219 411T193 356H56Q59 402 78 436T129 492Q159 514 199 524T286 535Q344 535 386 519T453 465Q485 499 527 517T624 535Q673 535 718 520T798 473Q832 441 852 391T873 271V232H506Q510 164 540 128T630 92Q679 92 704 112T735 165H871Q859 80 796 35T629
-11ZM254 90Q305 90 336 114T368 183V229H309Q248 229 213 214T178 156Q178 125 196 108T254 90ZM732 318Q728 376 701 405T624 435Q576 435 546 404T508 318H732ZM465 753H617L513 594H408L465 753Z" />
<glyph unicode="&#x1fe;" glyph-name="Oslashacute" horiz-adv-x="816" d="M39 21L126 114Q87 161 67 221T46 353V361Q46 441 73 508T151 623Q200 671 267 698T414 725Q479 725 535 708T636 660L712 741L766 687L693 609Q735 562 758 501T782 365V357Q782 277
756 210T681 93Q633 44 565 17T413 -11Q343 -11 285 7T180 61L93 -32L39 21ZM416 118Q462 118 498 135T561 183Q587 213 601 257T615 355V363Q615 401 608 434T587 495L281 168Q308 143 341 131T416 118ZM213 354Q213 319 219 289T236 232L539 556Q514 577 483
587T414 597Q320 597 267 534T213 362V354ZM405 902H562L461 763H352L405 902Z" />
<glyph unicode="&#x1ff;" glyph-name="oslashacute" horiz-adv-x="616" d="M28 6L98 81Q69 115 54 158T38 256V264Q38 325 59 375T117 461Q154 496 204 515T314 535Q361 535 401 524T475 489L541 560L590 516L525 446Q555 412 572 367T589 267V259Q589 197 568
147T510 62Q473 27 423 8T313 -11Q265 -11 223 1T147 37L77 -38L28 6ZM314 98Q376 98 409 140T443 258V265Q443 288 440 307T430 343L230 127Q246 113 267 106T314 98ZM185 259Q185 238 187 220T195 186L392 399Q377 412 358 418T314 425Q253 425 219 384T185 267V259ZM312
753H464L360 594H255L312 753Z" />
<glyph unicode="&#x218;" glyph-name="Scommaaccent" horiz-adv-x="642" d="M333 -11Q259 -11 205 5T115 53Q79 84 60 127T38 224H193Q196 200 203 179T226 142Q242 126 267 117T333 107Q387 107 419 133T451 202Q451 223 445 238T423 264Q407 274 381 281T316
295Q247 304 199 319T119 361Q87 386 73 423T58 512Q58 558 76 597T129 665Q163 693 211 709T318 725Q439 725 507 672T586 511H437Q430 559 400 582T318 606Q264 606 238 584T211 525Q211 506 216 492T237 467Q251 456 277 448T344 434Q409 426 458 412T540 373Q573
348 589 310T606 217Q606 169 587 128T533 56Q498 25 447 7T333 -11ZM216 -201L263 -31L393 -52L298 -228L216 -201Z" />
<glyph unicode="&#x219;" glyph-name="scommaaccent" horiz-adv-x="502" d="M260 -11Q154 -11 95 34T32 164H167Q172 129 191 110T259 90Q301 90 321 105T341 147Q341 174 317 187T235 209Q183 217 147 229T87 260Q63 279 53 306T42 372Q42 413 59 443T106 495Q134
515 171 525T249 535Q292 535 329 527T396 499Q424 480 442 449T465 373H332Q326 405 307 420T250 436Q215 436 196 421T176 382Q176 357 198 345T277 325Q326 318 364 307T428 278Q453 259 466 231T480 161Q480 76 422 33T260 -11ZM150 -201L197 -31L327 -52L232
-228L150 -201Z" />
<glyph unicode="&#x21a;" glyph-name="uni021A" horiz-adv-x="598" d="M223 589H30V715H579V589H386V0H223V589ZM200 -201L247 -31L377 -52L282 -228L200 -201Z" />
<glyph unicode="&#x21b;" glyph-name="uni021B" horiz-adv-x="377" d="M261 -10Q178 -10 135 31T92 155V420H25V523H92V636H236V523H346V420H236V168Q236 137 250 122T294 106Q310 106 323 108T349 116V4Q334 -1 312 -5T261 -10ZM362 -201L409 -31L539 -52L444
-228L362 -201Z" />
<glyph unicode="&#x237;" glyph-name="uni0237" horiz-adv-x="281" d="M-1 -79Q37 -76 52 -59T68 -10V523H212V-9Q212 -50 202 -82T167 -138T101 -173T-1 -187V-79Z" />
<glyph unicode="&#x2c6;" glyph-name="circumflex" horiz-adv-x="412" d="M153 751H262L376 595H274L205 658L135 595H36L153 751Z" />
<glyph unicode="&#x2c7;" glyph-name="caron" horiz-adv-x="412" d="M36 751H138L207 688L276 751H376L259 595H150L36 751Z" />
<glyph unicode="&#x2d8;" glyph-name="breve" horiz-adv-x="412" d="M205 598Q139 598 98 638T53 747H148Q151 722 165 708T205 693Q231 693 246 707T266 747H359Q355 678 312 638T205 598Z" />
<glyph unicode="&#x2d9;" glyph-name="dotaccent" horiz-adv-x="412" d="M206 598Q171 598 148 620T125 675Q125 707 148 729T206 752Q240 752 263 730T286 675Q286 643 263 621T206 598Z" />
<glyph unicode="&#x2da;" glyph-name="ring" horiz-adv-x="412" d="M207 643Q228 643 242 658T256 696Q256 719 242 734T207 750Q185 750 172 735T158 696Q158 673 171 658T207 643ZM207 585Q183 585 163 594T126 618Q110 633 101 653T92 696Q92 719 101 739T126
775Q142 790 162 799T207 808Q231 808 251 799T288 775Q304 760 313 740T322 696Q322 673 313 653T288 618Q272 603 252 594T207 585Z" />
<glyph unicode="&#x2db;" glyph-name="ogonek" horiz-adv-x="412" d="M213 -182Q165 -182 133 -162T101 -103Q101 -85 108 -70T127 -42Q139 -29 154 -19T185 0H275Q249 -19 236 -35T223 -71Q223 -87 232 -94T256 -102Q268 -102 277 -101T294 -95V-167Q281 -173
261 -177T213 -182Z" />
<glyph unicode="&#x2dc;" glyph-name="tilde" horiz-adv-x="412" d="M266 598Q247 598 231 604T202 617L176 630Q164 636 153 636Q140 636 131 626T118 599H35Q40 668 70 704T145 740Q163 740 179 734T209 722Q223 715 235 709T260 703Q274 703 282 713T294 740H378Q372
670 341 634T266 598Z" />
<glyph unicode="&#x2dd;" glyph-name="hungarumlaut" horiz-adv-x="412" d="M118 753H241L165 594H76L118 753ZM286 753H410L334 594H244L286 753Z" />
</font>
</defs>
</svg>
