<?xml version="1.0" standalone="no"?> <!DOCTYPE svg PUBLIC "-//W3C//DTD SVG 1.0//EN" "http://www.w3.org/TR/2001/REC-SVG-20010904/DTD/svg10.dtd" > <svg xmlns="http://www.w3.org/2000/svg" width="100%" height="100%">
<defs >
<font id="Graphik-Regular" horiz-adv-x="530" ><font-face
    font-family=""
    units-per-em="1000"
    panose-1="2 11 5 3 3 2 2 6 2 3"
    ascent="818"
    descent="-182"
    alphabetic="0" />
<missing-glyph horiz-adv-x="500" />
<glyph unicode=" " glyph-name="space" horiz-adv-x="265" />
<glyph unicode="!" glyph-name="exclam" horiz-adv-x="298" d="M149 -5Q123 -5 104 13T85 59Q85 86 104 104T149 123Q175 123 194 105T213 59Q213 32 194 14T149 -5ZM104 715H196L182 202H118L104 715Z" />
<glyph unicode="&quot;" glyph-name="quotedbl" horiz-adv-x="387" d="M67 715H157L142 470H82L67 715ZM230 715H320L305 470H245L230 715Z" />
<glyph unicode="#" glyph-name="numbersign" horiz-adv-x="515" d="M284 282H187L161 99H93L119 282H36V352H130L149 484H64V554H159L183 715H251L227 554H324L348 715H416L392 554H479V484H382L363 352H451V282H352L326 99H258L284 282ZM198 352H295L314 484H217L198
352Z" />
<glyph unicode="$" glyph-name="dollar" horiz-adv-x="639" d="M291 -8Q227 -4 183 16T112 66T70 136T51 218H135Q139 189 146 162T171 114T216 79T291 60V338Q241 347 202 361T136 398T95 453T80 530Q80 569 95 603T138 662T205 704T291 723V813H350V722Q441
714 494 665T558 527H480Q469 585 438 615T350 654V404Q405 394 447 380T517 342T559 284T573 202Q573 159 557 122T511 57T440 12T350 -8V-135H291V-8ZM490 196Q490 224 484 244T461 281T418 308T350 328V60Q380 63 405 74T450 103T479 144T490 196ZM159 538Q159
514 164 495T183 461T223 435T291 414V655Q228 650 194 618T159 538Z" />
<glyph unicode="%" glyph-name="percent" horiz-adv-x="796" d="M204 448Q245 448 268 474T292 552Q292 600 269 628T204 656Q164 656 140 629T116 551Q116 500 140 474T204 448ZM204 383Q172 383 143 395T90 430T54 483T40 550Q40 587 53 618T89 672T141 708T204
721Q237 721 267 708T319 673T355 619T368 552Q368 515 355 484T319 431T266 396T204 383ZM578 715H654L217 0H141L578 715ZM592 57Q633 57 656 83T680 161Q680 209 657 237T592 265Q552 265 528 238T504 160Q504 109 528 83T592 57ZM592 -8Q560 -8 531 4T478 39T442
92T428 159Q428 196 441 227T477 281T529 317T592 330Q625 330 655 317T707 282T743 228T756 161Q756 124 743 93T707 40T654 5T592 -8Z" />
<glyph unicode="&amp;" glyph-name="ampersand" horiz-adv-x="698" d="M533 146L653 0H552L481 86Q447 47 399 20T283 -7Q234 -7 193 7T121 46T74 108T57 189Q57 231 69 263T104 321T156 367T221 404Q158 485 158 555Q158 595 172 626T211 677T267 708T333 719Q366
719 394 708T444 678T477 631T489 572Q489 507 447 462T336 387L486 204L573 369H650L533 146ZM286 61Q373 61 438 139L260 356Q234 343 212 329T174 295T150 252T141 197Q141 132 179 97T286 61ZM238 554Q238 527 254 499T300 433Q360 460 385 491T411 574Q411
609 389 631T330 654Q292 654 265 631T238 554Z" />
<glyph unicode="&apos;" glyph-name="quotesingle" horiz-adv-x="224" d="M67 715H157L142 470H82L67 715Z" />
<glyph unicode="(" glyph-name="parenleft" horiz-adv-x="334" d="M225 -148Q190 -108 160 -59T108 47T72 171T59 312Q59 387 72 453T107 576T160 683T225 773H308Q274 731 245 683T193 578T159 455T146 312Q146 235 158 169T193 47T244 -58T308 -148H225Z" />
<glyph unicode=")" glyph-name="parenright" horiz-adv-x="334" d="M26 -148Q60 -106 89 -58T141 47T175 170T188 313Q188 390 176 456T141 578T90 683T26 773H109Q143 732 173 684T226 578T262 454T275 313Q275 238 262 172T227 49T174 -58T109 -148H26Z" />
<glyph unicode="*" glyph-name="asterisk" horiz-adv-x="434" d="M88 450L171 561L48 590L70 657L188 609L181 743H254L247 609L364 657L386 590L262 561L345 450L289 409L215 529L145 409L88 450Z" />
<glyph unicode="+" glyph-name="plus" horiz-adv-x="531" d="M229 307H42V377H229V579H302V377H489V307H302V105H229V307Z" />
<glyph unicode="," glyph-name="comma" horiz-adv-x="294" d="M42 -95L138 124L219 86L96 -123L42 -95Z" />
<glyph unicode="-" glyph-name="hyphen" horiz-adv-x="346" d="M66 314H280V236H66V314Z" />
<glyph unicode="." glyph-name="period" horiz-adv-x="294" d="M147 -5Q121 -5 102 13T83 59Q83 86 102 104T147 123Q173 123 192 105T211 59Q211 32 192 14T147 -5Z" />
<glyph unicode="/" glyph-name="slash" horiz-adv-x="415" d="M303 776H379L88 -148H12L303 776Z" />
<glyph unicode="0" glyph-name="zero" horiz-adv-x="693" d="M350 63Q444 63 491 133T539 340V380Q539 442 526 492T489 579T429 634T348 654Q257 654 206 583T155 378V338Q155 202 208 133T350 63ZM350 -9Q286 -9 234 16T144 86T87 195T66 337V377Q66 456 85
520T141 629T230 699T348 724Q414 724 466 699T553 628T608 519T627 379V339Q627 261 609 197T555 87T468 16T350 -9Z" />
<glyph unicode="1" glyph-name="one" horiz-adv-x="411" d="M199 629L39 514V595L205 715H286V0H199V629Z" />
<glyph unicode="2" glyph-name="two" horiz-adv-x="566" d="M25 20L309 319Q358 371 385 421T412 526Q412 586 379 620T284 654Q221 654 183 617T133 495H52Q56 547 73 589T121 662T192 708T284 724Q333 724 373 710T441 670T485 606T500 523Q500 457 461 393T356
263L159 71H504V0H25V20Z" />
<glyph unicode="3" glyph-name="three" horiz-adv-x="616" d="M296 -9Q239 -9 194 8T116 54T66 124T46 211H126Q129 179 140 152T173 104T225 73T298 61Q383 61 422 98T461 199Q461 338 310 338H256V411H306Q376 411 408 442T440 533Q440 584 408 618T310 653Q243
653 201 616T152 518H76Q78 560 95 597T144 663T217 707T310 724Q361 724 401 709T468 667T510 606T525 535Q525 474 493 437T412 379Q475 362 512 318T550 199Q550 150 531 112T479 46T398 5T296 -9Z" />
<glyph unicode="4" glyph-name="four" horiz-adv-x="629" d="M403 150H45V178L372 715H488V221H587V150H488V0H403V150ZM403 221V649L155 221H403Z" />
<glyph unicode="5" glyph-name="five" horiz-adv-x="599" d="M287 -9Q229 -9 186 6T114 48T69 112T49 193H132Q137 164 146 140T173 98T218 71T286 61Q359 61 401 107T443 234Q443 310 403 355T293 401Q230 401 192 383T124 332H92V715H494V640H164V422Q186 442
222 456T310 471Q358 471 398 455T469 407T515 333T532 234Q532 177 513 132T461 56T383 8T287 -9Z" />
<glyph unicode="6" glyph-name="six" horiz-adv-x="631" d="M323 -9Q250 -9 201 16T121 86T79 190T66 316V333Q66 429 86 502T144 625T233 699T346 724Q430 724 485 681T555 551H472Q460 601 430 627T340 653Q259 653 207 581T152 367Q178 411 225 437T336 464Q389
464 432 446T506 397T553 322T570 230Q570 176 553 132T503 57T426 8T323 -9ZM323 59Q358 59 387 71T437 104T469 157T481 226Q481 304 438 350T322 396Q286 396 256 385T204 352T170 302T158 238Q158 150 204 105T323 59Z" />
<glyph unicode="7" glyph-name="seven" horiz-adv-x="537" d="M401 645H38V715H509V703L241 0H152L401 645Z" />
<glyph unicode="8" glyph-name="eight" horiz-adv-x="619" d="M310 -9Q266 -9 222 4T143 43T85 110T63 203Q63 275 102 321T198 388Q147 408 119 446T90 538Q90 581 109 615T159 674T229 711T310 724Q352 724 391 711T461 674T510 616T529 540Q529 486 499 449T419
389Q482 366 519 320T556 205Q556 151 535 111T479 45T400 5T310 -9ZM310 62Q343 62 371 71T421 99T455 145T467 208Q467 243 455 269T421 314T372 341T312 350Q280 350 251 341T200 314T165 269T152 206Q152 171 165 144T200 99T250 72T310 62ZM313 419Q370 419
405 450T441 539Q441 565 431 586T404 623T362 647T310 656Q282 656 258 648T216 625T188 587T178 537Q178 509 189 487T218 450T261 427T313 419Z" />
<glyph unicode="9" glyph-name="nine" horiz-adv-x="632" d="M296 -8Q196 -8 138 40T66 176H150Q162 123 195 93T298 63Q384 63 431 133T481 347Q455 303 407 278T296 252Q244 252 201 269T126 318T78 392T61 486Q61 540 78 584T128 659T205 708T308 725Q436 725
500 643T565 405V360Q565 181 495 87T296 -8ZM309 320Q345 320 375 331T427 362T461 411T473 475Q473 563 427 610T308 657Q273 657 244 645T194 612T162 559T150 490Q150 412 193 366T309 320Z" />
<glyph unicode=":" glyph-name="colon" horiz-adv-x="304" d="M152 -5Q126 -5 107 13T88 59Q88 86 107 104T152 123Q178 123 197 105T216 59Q216 32 197 14T152 -5ZM152 292Q126 292 107 310T88 356Q88 383 107 401T152 420Q178 420 197 402T216 356Q216 329 197
311T152 292Z" />
<glyph unicode=";" glyph-name="semicolon" horiz-adv-x="304" d="M27 -95L123 124L204 86L81 -123L27 -95ZM161 292Q135 292 116 310T97 356Q97 383 116 401T161 420Q187 420 206 402T225 356Q225 329 206 311T161 292Z" />
<glyph unicode="&lt;" glyph-name="less" horiz-adv-x="516" d="M59 312V332L443 549V469L180 322L443 175V95L59 312Z" />
<glyph unicode="=" glyph-name="equal" horiz-adv-x="496" d="M46 268H450V196H46V268ZM46 448H450V376H46V448Z" />
<glyph unicode="&gt;" glyph-name="greater" horiz-adv-x="516" d="M73 175L336 322L73 469V549L457 332V312L73 95V175Z" />
<glyph unicode="?" glyph-name="question" horiz-adv-x="501" d="M185 252Q185 282 194 307T217 354T250 395T288 432Q317 461 339 490T361 555Q361 600 336 627T254 655Q197 655 162 620T121 525H43Q46 569 62 605T106 668T171 709T255 724Q306 724 342 710T401
673T434 619T445 558Q445 530 437 507T414 464T383 426T347 391Q330 375 314 359T286 325T267 288T259 245V202H185V252ZM220 -5Q194 -5 175 13T156 59Q156 86 175 104T220 123Q246 123 265 105T284 59Q284 32 265 14T220 -5Z" />
<glyph unicode="@" glyph-name="at" horiz-adv-x="927" d="M465 -147Q365 -147 288 -114T158 -24T78 106T51 260Q51 352 85 430T177 566T313 655T478 688Q568 688 641 660T766 583T847 466T876 322Q876 251 858 203T812 124T751 81T688 67Q658 67 637 73T603 90T583
117T573 153Q551 114 511 87T424 60Q351 60 307 106T263 234Q263 284 278 326T320 400T383 448T460 466Q487 466 507 460T542 445T566 423T581 398L588 458H671L641 206Q631 127 689 127Q710 127 731 138T768 172T794 232T804 320Q804 387 782 442T718 538T616
600T478 622Q402 622 338 596T228 522T155 408T128 262Q128 194 149 132T213 22T318 -53T465 -81Q506 -81 539 -76T600 -61T653 -35T701 0H778Q759 -33 728 -60T657 -106T568 -136T465 -147ZM442 124Q465 124 488 134T529 165T558 216T570 287Q570 344 543 372T466
400Q442 400 421 389T384 357T358 305T348 235Q348 182 374 153T442 124Z" />
<glyph unicode="A" glyph-name="A" horiz-adv-x="686" d="M288 715H402L644 0H558L488 206H193L124 0H42L288 715ZM217 275H465L341 643L217 275Z" />
<glyph unicode="B" glyph-name="B" horiz-adv-x="634" d="M96 715H311Q361 715 403 706T476 676T524 619T541 530V526Q541 477 518 437T433 375Q511 356 543 315T576 204V200Q576 149 560 112T512 50T438 13T341 0H96V715ZM339 68Q417 68 454 101T491 201V205Q491
271 453 303T327 335H181V68H339ZM311 403Q390 403 423 433T456 529V533Q456 594 420 620T309 647H181V403H311Z" />
<glyph unicode="C" glyph-name="C" horiz-adv-x="742" d="M395 -9Q317 -9 256 16T151 89T84 203T61 353V361Q61 440 86 507T156 623T262 699T397 726Q453 726 503 711T592 667T656 594T687 492H601Q587 574 539 615T398 657Q342 657 297 636T219 577T169 484T151
362V354Q151 286 168 232T216 140T293 82T397 62Q485 62 542 105T613 237H694Q675 113 595 52T395 -9Z" />
<glyph unicode="D" glyph-name="D" horiz-adv-x="708" d="M281 71Q350 71 401 91T487 148T539 237T557 356V364Q557 426 542 477T493 566T407 624T280 645H183V71H281ZM96 715H285Q377 715 445 688T558 614T625 503T647 364V355Q647 281 626 216T559 103T446 28T283
0H96V715Z" />
<glyph unicode="E" glyph-name="E" horiz-adv-x="578" d="M96 715H513V644H183V401H449V330H183V71H531V0H96V715Z" />
<glyph unicode="F" glyph-name="F" horiz-adv-x="558" d="M96 715H514V644H183V391H441V320H183V0H96V715Z" />
<glyph unicode="G" glyph-name="G" horiz-adv-x="779" d="M407 -9Q324 -9 260 18T152 93T84 208T61 353V361Q61 439 86 506T157 622T266 698T407 726Q460 726 509 713T597 673T663 602T698 499H611Q596 584 542 620T409 657Q347 657 299 636T218 575T168 482T151
362V354Q151 288 167 234T216 141T296 82T407 61Q465 61 507 79T576 127T617 199T632 289H423V361H717V308Q717 230 695 171T631 72T533 12T407 -9Z" />
<glyph unicode="H" glyph-name="H" horiz-adv-x="742" d="M96 715H183V391H559V715H646V0H559V318H183V0H96V715Z" />
<glyph unicode="I" glyph-name="I" horiz-adv-x="289" d="M101 715H188V0H101V715Z" />
<glyph unicode="J" glyph-name="J" horiz-adv-x="432" d="M144 -9Q103 -9 81 -4T44 10V82Q64 74 85 68T139 62Q193 62 224 94T255 198V715H342V194Q342 140 327 102T284 39T221 3T144 -9Z" />
<glyph unicode="K" glyph-name="K" horiz-adv-x="628" d="M96 715H183V371L494 716H591L273 368L607 0H502L183 349V0H96V715Z" />
<glyph unicode="L" glyph-name="L" horiz-adv-x="547" d="M96 715H183V71H510V0H96V715Z" />
<glyph unicode="M" glyph-name="M" horiz-adv-x="868" d="M96 715H217L438 158L652 715H772V0H685V602L448 0H421L176 602V0H96V715Z" />
<glyph unicode="N" glyph-name="N" horiz-adv-x="736" d="M96 715H209L557 124V715H640V0H540L179 613V0H96V715Z" />
<glyph unicode="O" glyph-name="O" horiz-adv-x="823" d="M415 63Q475 63 522 84T603 144T654 237T672 356V364Q672 424 655 477T604 569T523 631T413 654Q351 654 302 633T220 572T169 480T151 362V354Q151 289 171 236T227 144T311 84T415 63ZM415 -9Q336 -9
271 19T159 97T87 212T61 353V361Q61 437 86 503T158 619T269 696T413 724Q492 724 556 696T666 619T737 504T762 363V355Q762 279 737 213T667 98T557 20T415 -9Z" />
<glyph unicode="P" glyph-name="P" horiz-adv-x="593" d="M96 715H299Q350 715 395 704T475 667T529 602T549 506V502Q549 445 529 405T475 340T396 303T299 291H183V0H96V715ZM305 360Q382 360 422 396T462 502V506Q462 582 420 613T305 645H183V360H305Z" />
<glyph unicode="Q" glyph-name="Q" horiz-adv-x="823" d="M565 23Q498 -9 415 -9Q336 -9 271 19T159 97T87 212T61 353V361Q61 437 86 503T158 619T269 696T413 724Q492 724 556 696T666 619T737 504T762 363V355Q762 264 727 188T628 62L718 -38L665 -89L565
23ZM415 63Q469 63 513 81L433 171L486 222L577 119Q623 158 647 218T672 356V364Q672 424 655 477T604 569T523 631T413 654Q351 654 302 633T220 572T169 480T151 362V354Q151 289 171 236T227 144T311 84T415 63Z" />
<glyph unicode="R" glyph-name="R" horiz-adv-x="640" d="M96 715H311Q362 715 407 704T487 669T541 608T561 516V512Q561 468 547 435T509 378T453 339T384 317L603 0H506L293 311H183V0H96V715ZM317 380Q394 380 434 413T474 512V516Q474 552 463 577T432 617T383
638T317 645H183V380H317Z" />
<glyph unicode="S" glyph-name="S" horiz-adv-x="639" d="M327 -9Q255 -9 206 9T124 59T76 131T54 218H138Q142 186 152 158T183 108T238 74T327 61Q361 61 391 70T443 98T477 141T490 196Q490 226 482 248T455 287T402 314T317 333Q261 342 217 356T141 392T94
448T78 530Q78 571 95 606T142 668T215 709T308 724Q416 724 479 674T554 527H476Q463 595 423 624T308 654Q234 654 197 622T159 538Q159 512 165 492T190 456T242 430T331 410Q391 401 436 386T512 347T558 288T574 202Q574 157 556 119T504 52T426 7T327 -9Z"
/>
<glyph unicode="T" glyph-name="T" horiz-adv-x="573" d="M243 644H35V715H538V644H330V0H243V644Z" />
<glyph unicode="U" glyph-name="U" horiz-adv-x="708" d="M347 -9Q223 -9 157 60T90 261V715H177V271Q177 215 187 176T218 111T271 75T349 63Q392 63 425 73T482 108T518 175T531 284V715H618V272Q618 141 552 66T347 -9Z" />
<glyph unicode="V" glyph-name="V" horiz-adv-x="666" d="M36 715H122L335 84L548 715H630L383 0H279L36 715Z" />
<glyph unicode="W" glyph-name="W" horiz-adv-x="940" d="M40 715H129L274 138L442 715H504L672 136L819 715H900L714 0H634L472 565L305 0H226L40 715Z" />
<glyph unicode="X" glyph-name="X" horiz-adv-x="669" d="M287 367L67 715H163L341 434L518 715H607L385 367L618 0H520L329 301L138 0H51L287 367Z" />
<glyph unicode="Y" glyph-name="Y" horiz-adv-x="610" d="M268 312L29 715H127L314 383L494 715H581L355 311V0H268V312Z" />
<glyph unicode="Z" glyph-name="Z" horiz-adv-x="607" d="M34 14L439 644H70V715H559V702L165 74H553V0H34V14Z" />
<glyph unicode="[" glyph-name="bracketleft" horiz-adv-x="368" d="M94 776H318V710H177V-82H318V-148H94V776Z" />
<glyph unicode="\" glyph-name="backslash" horiz-adv-x="415" d="M36 776H112L403 -148H327L36 776Z" />
<glyph unicode="]" glyph-name="bracketright" horiz-adv-x="368" d="M50 -82H191V710H50V776H274V-148H50V-82Z" />
<glyph unicode="^" glyph-name="asciicircum" horiz-adv-x="519" d="M217 715H302L469 408H385L258 644L132 408H50L217 715Z" />
<glyph unicode="_" glyph-name="underscore" horiz-adv-x="406" d="M5 -92H401V-158H5V-92Z" />
<glyph unicode="`" glyph-name="grave" horiz-adv-x="412" d="M79 760H183L245 613H183L79 760Z" />
<glyph unicode="a" glyph-name="a" horiz-adv-x="552" d="M221 -9Q185 -9 153 0T98 28T61 76T47 145Q47 190 69 221T127 271T211 298T309 307H384V345Q384 408 358 435T272 463Q164 463 152 369H69Q73 414 91 445T138 495T202 523T276 532Q313 532 348 524T409
494T451 436T467 345V0H384V66Q355 29 317 10T221 -9ZM229 57Q262 57 290 65T339 90T372 129T384 183V248H312Q273 248 240 243T182 225T144 194T130 145Q130 104 152 81T229 57Z" />
<glyph unicode="b" glyph-name="b" horiz-adv-x="639" d="M350 -9Q286 -9 241 19T173 86V0H90V773H173V435Q184 454 202 471T244 502T294 524T350 532Q401 532 445 514T520 462T570 379T588 269V261Q588 201 571 152T523 66T448 11T350 -9ZM342 60Q420 60 461
110T502 257V265Q502 314 489 351T455 413T404 450T341 463Q305 463 274 451T219 415T183 353T170 265V257Q170 207 182 170T217 109T272 72T342 60Z" />
<glyph unicode="c" glyph-name="c" horiz-adv-x="582" d="M307 -9Q252 -9 206 9T125 62T71 146T51 256V264Q51 324 71 373T125 458T206 512T305 532Q346 532 384 522T453 491T505 434T532 349H450Q440 411 400 437T305 463Q269 463 239 449T186 410T150 347T137
264V256Q137 159 184 110T308 60Q336 60 361 68T407 92T441 132T458 188H535Q531 146 513 110T464 47T394 6T307 -9Z" />
<glyph unicode="d" glyph-name="d" horiz-adv-x="639" d="M287 -9Q236 -9 193 8T118 59T69 141T51 251V259Q51 319 69 369T119 455T196 512T295 532Q361 532 402 505T466 439V773H549V0H466V90Q455 71 436 53T394 22T343 0T287 -9ZM296 60Q332 60 364 72T419 108T455
170T469 258V266Q469 367 425 415T303 463Q225 463 181 411T137 263V255Q137 205 149 169T183 108T234 72T296 60Z" />
<glyph unicode="e" glyph-name="e" horiz-adv-x="580" d="M304 -9Q248 -9 202 10T122 63T70 147T51 256V264Q51 323 69 372T119 457T197 512T296 532Q341 532 383 518T459 472T511 392T531 272V245H137Q140 155 182 108T305 60Q428 60 444 151H527Q513 72 453
32T304 -9ZM446 312Q440 393 401 428T296 463Q232 463 192 423T140 312H446Z" />
<glyph unicode="f" glyph-name="f" horiz-adv-x="358" d="M108 453H33V523H108V608Q108 688 147 732T264 776Q284 776 297 774T326 766V696Q315 701 300 704T267 707Q226 707 209 682T191 617V523H319V453H191V0H108V453Z" />
<glyph unicode="g" glyph-name="g" horiz-adv-x="639" d="M299 -191Q241 -191 199 -178T128 -144T83 -93T62 -30H147Q165 -121 298 -121Q375 -121 420 -83T466 40V116Q455 97 437 79T395 48T344 26T289 17Q238 17 194 35T119 87T69 165T51 265V272Q51 325 69 372T119
455T196 511T295 532Q361 532 402 505T466 439V523H549V35Q549 -22 530 -64T478 -135T400 -177T299 -191ZM298 86Q334 86 365 98T420 134T456 192T469 271V278Q469 366 425 414T303 463Q264 463 233 449T181 411T149 352T137 276V268Q137 225 150 192T184 135T235
99T298 86Z" />
<glyph unicode="h" glyph-name="h" horiz-adv-x="610" d="M90 773H173V440Q191 477 233 504T341 532Q381 532 415 521T473 484T511 418T525 321V0H442V327Q442 396 412 428T319 460Q290 460 264 451T217 424T185 379T173 317V0H90V773Z" />
<glyph unicode="i" glyph-name="i" horiz-adv-x="267" d="M92 523H175V0H92V523ZM132 632Q109 632 93 648T77 687Q77 710 93 726T132 742Q155 742 171 726T187 687Q187 664 171 648T132 632Z" />
<glyph unicode="j" glyph-name="j" horiz-adv-x="267" d="M15 -121Q60 -117 76 -96T92 -40V523H175V-33Q175 -108 139 -148T15 -191V-121ZM132 632Q109 632 93 648T77 687Q77 710 93 726T132 742Q155 742 171 726T187 687Q187 664 171 648T132 632Z" />
<glyph unicode="k" glyph-name="k" horiz-adv-x="528" d="M90 773H173V282L390 523H487L263 280L506 0H405L173 271V0H90V773Z" />
<glyph unicode="l" glyph-name="l" horiz-adv-x="268" d="M92 773H176V0H92V773Z" />
<glyph unicode="m" glyph-name="m" horiz-adv-x="922" d="M90 523H173V443Q191 480 231 506T329 532Q380 532 421 510T482 434Q495 459 516 477T561 508T611 526T661 532Q696 532 728 521T784 485T822 421T837 324V0H754V330Q754 399 726 429T643 460Q617 460
593 452T549 426T517 382T505 320V0H422V330Q422 399 394 429T311 460Q285 460 261 452T217 426T185 382T173 320V0H90V523Z" />
<glyph unicode="n" glyph-name="n" horiz-adv-x="610" d="M90 523H173V440Q191 477 233 504T341 532Q381 532 415 521T473 484T511 418T525 321V0H442V327Q442 396 412 428T319 460Q290 460 264 451T217 424T185 379T173 317V0H90V523Z" />
<glyph unicode="o" glyph-name="o" horiz-adv-x="616" d="M308 60Q347 60 379 74T433 114T467 176T479 257V264Q479 309 467 346T433 409T379 449T308 463Q269 463 237 449T183 409T149 347T137 265V257Q137 167 182 114T308 60ZM307 -9Q251 -9 204 11T123 66T70
151T51 257V265Q51 324 70 373T124 457T205 512T308 532Q363 532 410 513T492 458T545 374T565 266V258Q565 199 546 150T492 65T410 11T307 -9Z" />
<glyph unicode="p" glyph-name="p" horiz-adv-x="639" d="M90 523H173V435Q184 454 202 471T244 502T294 524T350 532Q401 532 445 514T520 462T570 379T588 269V261Q588 201 571 152T523 66T448 11T350 -9Q285 -9 241 19T173 86V-182H90V523ZM342 60Q420 60 461
110T502 257V265Q502 314 489 351T455 413T404 450T341 463Q305 463 274 451T219 415T183 353T170 265V257Q170 207 182 170T217 109T272 72T342 60Z" />
<glyph unicode="q" glyph-name="q" horiz-adv-x="639" d="M466 90Q455 71 436 53T394 22T343 0T287 -9Q236 -9 193 8T118 59T69 141T51 251V259Q51 319 69 369T119 455T196 512T295 532Q361 532 402 505T466 439V523H549V-182H466V90ZM296 60Q332 60 364 72T419
108T455 170T469 258V266Q469 367 425 415T303 463Q225 463 181 411T137 263V255Q137 205 149 169T183 108T234 72T296 60Z" />
<glyph unicode="r" glyph-name="r" horiz-adv-x="388" d="M90 523H173V429Q185 451 200 469T236 501T283 523T345 532V454Q306 452 274 444T220 417T185 367T173 287V0H90V523Z" />
<glyph unicode="s" glyph-name="s" horiz-adv-x="492" d="M252 -9Q158 -9 105 35T47 161H128Q133 114 160 87T251 60Q311 60 338 80T365 143Q365 184 335 202T243 231Q192 240 157 252T101 283T71 326T61 385Q61 421 77 448T118 494T175 522T238 532Q273 532 305
525T362 499T405 452T427 381H347Q338 424 313 443T237 463Q192 463 165 443T138 388Q138 370 143 358T163 336T200 319T260 305Q300 297 334 288T392 262T430 219T444 150Q444 78 396 35T252 -9Z" />
<glyph unicode="t" glyph-name="t" horiz-adv-x="367" d="M249 -7Q177 -7 143 31T108 131V453H33V523H108V642H191V523H313V453H191V139Q191 63 256 63Q276 63 291 66T320 74V4Q307 -1 291 -4T249 -7Z" />
<glyph unicode="u" glyph-name="u" horiz-adv-x="606" d="M267 -9Q228 -9 195 2T137 37T99 100T85 192V523H168V196Q168 127 197 95T289 63Q317 63 343 72T389 99T421 144T433 206V523H516V0H433V83Q415 46 373 19T267 -9Z" />
<glyph unicode="v" glyph-name="v" horiz-adv-x="546" d="M31 523H121L276 84L429 523H515L327 0H221L31 523Z" />
<glyph unicode="w" glyph-name="w" horiz-adv-x="806" d="M34 523H124L246 102L373 523H445L564 102L687 523H772L609 0H517L408 392L286 0H195L34 523Z" />
<glyph unicode="x" glyph-name="x" horiz-adv-x="540" d="M221 269L46 523H143L271 333L398 523H488L315 275L506 0H408L267 211L123 0H34L221 269Z" />
<glyph unicode="y" glyph-name="y" horiz-adv-x="541" d="M236 54L31 523H120L280 148L425 523H510L221 -182H137L236 54Z" />
<glyph unicode="z" glyph-name="z" horiz-adv-x="495" d="M27 12L336 453H57V523H464V508L162 73H460V0H27V12Z" />
<glyph unicode="{" glyph-name="braceleft" horiz-adv-x="393" d="M343 -148Q287 -148 246 -137T179 -101T144 -37T145 60L164 164Q168 186 165 207T148 246T109 273T46 284V346Q84 346 109 356T147 384T164 422T164 466L145 570Q135 627 144 666T178 730T245
766T343 778V715Q306 715 281 708T240 684T221 639T224 568L243 453Q252 396 224 362T145 315Q196 302 224 268T243 177L224 62Q217 19 221 -9T240 -54T280 -78T343 -85V-148Z" />
<glyph unicode="|" glyph-name="bar" horiz-adv-x="265" d="M99 776H166V-148H99V776Z" />
<glyph unicode="}" glyph-name="braceright" horiz-adv-x="393" d="M50 -85Q87 -85 112 -78T153 -54T172 -9T169 62L150 177Q141 234 169 268T248 315Q197 328 169 362T150 453L169 568Q176 611 172 639T153 684T113 708T50 715V778Q105 778 147 767T214 731T249
667T248 570L229 466Q225 444 228 423T245 384T284 357T347 346V284Q309 284 284 274T246 246T229 208T229 164L248 60Q258 3 249 -36T215 -100T147 -136T50 -148V-85Z" />
<glyph unicode="~" glyph-name="asciitilde" horiz-adv-x="457" d="M50 223Q53 256 62 280T86 319T119 343T156 351Q181 351 201 343T238 326T269 308T296 300Q312 300 325 313T341 353H407Q405 320 395 296T371 256T340 233T304 225Q278 225 257 233T219 250T188
268T162 276Q145 276 133 263T116 223H50Z" />
<glyph unicode="&#xa0;" glyph-name="uni00A0" horiz-adv-x="265" />
<glyph unicode="&#xa1;" glyph-name="exclamdown" horiz-adv-x="300" d="M150 604Q176 604 195 586T214 540Q214 513 195 495T150 476Q124 476 105 494T86 540Q86 567 105 585T150 604ZM195 -116H103L117 397H181L195 -116Z" />
<glyph unicode="&#xa2;" glyph-name="cent" horiz-adv-x="577" d="M273 -7Q224 -2 184 18T114 73T68 153T51 256V264Q51 319 68 365T115 446T185 502T273 530V629H332V530Q369 527 402 516T463 482T508 427T532 349H450Q442 402 409 428T332 461V62Q356 65 377
74T416 100T444 138T458 188H535Q531 149 515 115T472 55T410 13T332 -7V-135H273V-7ZM137 256Q137 170 173 122T273 62V460Q213 449 175 398T137 264V256Z" />
<glyph unicode="&#xa3;" glyph-name="sterling" horiz-adv-x="608" d="M54 377H119Q111 409 106 443T101 518Q101 564 118 602T164 667T234 709T321 724Q418 724 473 673T535 535H451Q446 563 437 585T412 622T375 645T321 653Q263 653 226 616T189 517Q189 476
194 443T206 377H419V315H220Q226 285 230 253T235 183Q235 149 222 118Q247 112 271 103T317 85T358 70T394 64Q434 64 458 82T485 150H558Q553 81 514 36T404 -9Q371 -9 340 1T281 22T228 44T182 54Q149 54 134 37T117 0H44Q45 17 52 36T71 73T102 103T147 122Q152
135 155 150T159 184Q159 217 152 249T136 315H54V377Z" />
<glyph unicode="&#xa5;" glyph-name="yen" horiz-adv-x="588" d="M90 339H246L34 715H128L303 391L470 715H554L354 339H511V281H343V203H511V145H343V0H258V145H90V203H258V281H90V339Z" />
<glyph unicode="&#xa6;" glyph-name="brokenbar" horiz-adv-x="272" d="M99 297H166V-148H99V297ZM99 776H166V367H99V776Z" />
<glyph unicode="&#xa7;" glyph-name="section" horiz-adv-x="551" d="M272 -137Q188 -137 137 -95T84 26H169Q173 -17 195 -42T270 -67Q323 -67 347 -41T372 23Q372 42 367 57T345 85T302 108T231 130Q190 140 156 154T98 188T61 235T48 299Q48 349 78 384T161
434Q131 455 116 484T100 561Q100 597 115 626T154 678T211 712T278 724Q360 724 409 684T461 567H377Q374 607 354 630T280 654Q227 654 204 628T180 563Q180 543 185 529T205 502T246 479T314 458Q355 447 390 435T450 403T489 355T503 286Q503 243 475 206T393
152Q422 131 437 101T452 25Q452 -9 438 -38T400 -90T342 -124T272 -137ZM332 185Q378 196 399 220T421 279Q421 301 413 316T389 343T350 363T296 380L217 401Q178 393 154 368T130 306Q130 266 162 245T257 206L332 185Z" />
<glyph unicode="&#xa8;" glyph-name="dieresis" horiz-adv-x="412" d="M112 634Q90 634 75 649T59 687Q59 709 74 724T112 740Q134 740 149 725T165 687Q165 665 150 650T112 634ZM300 634Q278 634 263 649T247 687Q247 709 262 724T300 740Q322 740 337 725T353
687Q353 665 338 650T300 634Z" />
<glyph unicode="&#xa9;" glyph-name="copyright" horiz-adv-x="856" d="M429 155Q338 155 288 208T237 353V361Q237 406 251 442T291 505T352 545T429 560Q463 560 492 552T544 526T581 483T598 422H522Q510 500 429 500Q377 500 347 464T316 361V354Q316 288
345 252T429 216Q470 216 497 236T530 299H602Q594 227 547 191T429 155ZM427 33Q491 33 549 57T651 124T721 227T747 359Q747 430 722 489T653 591T552 658T429 682Q363 682 305 658T204 591T135 489T109 357Q109 285 135 225T205 123T306 57T427 33ZM427 -9Q351
-9 284 19T168 96T90 212T61 357Q61 433 89 500T167 617T284 695T429 724Q507 724 574 696T690 618T767 502T795 359Q795 281 767 214T689 97T572 19T427 -9Z" />
<glyph unicode="&#xaa;" glyph-name="ordfeminine" horiz-adv-x="431" d="M176 290Q147 290 122 297T77 320T47 358T36 414Q36 450 53 475T99 515T167 538T248 545H306V571Q306 618 287 639T221 661Q179 661 158 644T131 593H54Q57 628 72 653T110 693T162 716T225
724Q258 724 286 717T337 692T371 645T384 572V298H306V350Q284 321 254 306T176 290ZM190 351Q240 351 273 375T306 445V491H250Q190 491 153 475T115 416Q115 385 131 368T190 351Z" />
<glyph unicode="&#xab;" glyph-name="guillemotleft" horiz-adv-x="512" d="M65 261L195 439H277L152 261L277 83H195L65 261ZM243 261L373 439H455L330 261L455 83H373L243 261Z" />
<glyph unicode="&#xad;" glyph-name="uni00AD" horiz-adv-x="346" d="M66 314H280V236H66V314Z" />
<glyph unicode="&#xae;" glyph-name="registered" horiz-adv-x="526" d="M187 615H264Q302 615 325 599T348 549V548Q348 523 336 509T303 489L361 396H311L258 481H235V396H187V615ZM263 514Q301 514 301 546V547Q301 564 291 571T263 578H235V514H263ZM263 318Q302
318 335 331T392 369T431 428T445 503Q445 544 432 578T394 636T337 674T263 688Q223 688 190 675T132 636T95 577T81 502Q81 461 95 427T133 369T191 332T263 318ZM263 282Q217 282 177 299T106 345T59 415T41 502Q41 548 58 588T105 659T175 706T263 724Q310
724 350 707T421 660T468 590T485 503Q485 456 468 416T420 346T350 299T263 282Z" />
<glyph unicode="&#xaf;" glyph-name="macron" horiz-adv-x="412" d="M75 712H337V648H75V712Z" />
<glyph unicode="&#xb0;" glyph-name="degree" horiz-adv-x="439" d="M220 464Q260 464 284 493T309 564Q309 608 285 637T220 666Q179 666 153 637T127 564Q127 522 153 493T220 464ZM220 406Q186 406 156 418T104 452T69 503T56 564Q56 597 69 626T104 677T156
711T220 724Q254 724 283 712T335 677T370 626T383 564Q383 532 370 503T335 453T284 419T220 406Z" />
<glyph unicode="&#xb1;" glyph-name="plusminus" horiz-adv-x="531" d="M229 327H42V397H229V579H302V397H489V327H302V145H229V327ZM42 70H489V0H42V70Z" />
<glyph unicode="&#xb2;" glyph-name="twosuperior" horiz-adv-x="298" d="M14 384L142 520Q167 546 181 569T196 617Q196 640 183 653T146 667Q121 667 106 652T86 601H25Q28 658 60 688T148 719Q202 719 232 692T262 618Q262 584 244 555T196 496L123 424H265V373H14V384Z"
/>
<glyph unicode="&#xb3;" glyph-name="threesuperior" horiz-adv-x="323" d="M158 368Q95 368 62 398T27 479H88Q91 453 106 436T156 418Q188 418 203 432T219 472Q219 526 159 526H133V573H158Q214 573 214 622Q214 642 201 655T162 669Q136 669 120 655T100 614H39Q42
660 74 689T163 719Q218 719 248 693T278 627Q278 598 263 580T221 553Q251 546 269 526T288 471Q288 423 253 396T158 368Z" />
<glyph unicode="&#xb4;" glyph-name="acute" horiz-adv-x="412" d="M229 760H333L229 613H167L229 760Z" />
<glyph unicode="&#xb6;" glyph-name="paragraph" horiz-adv-x="600" d="M282 346H268Q220 346 181 357T112 391T67 448T51 527Q51 575 67 610T113 668T182 703T268 715H500V-100H431V658H350V-100H282V346Z" />
<glyph unicode="&#xb7;" glyph-name="periodcentered" horiz-adv-x="294" d="M147 263Q121 263 102 281T83 327Q83 354 102 372T147 391Q173 391 192 373T211 327Q211 300 192 282T147 263Z" />
<glyph unicode="&#xb8;" glyph-name="cedilla" horiz-adv-x="412" d="M214 -214Q170 -214 144 -191T114 -130H168Q171 -144 181 -155T211 -166Q230 -166 240 -156T251 -130Q251 -114 241 -105T215 -96Q205 -96 198 -99T187 -104L155 -76L197 0H250L221 -53Q238
-51 255 -54T285 -68T307 -94T315 -134Q315 -154 307 -169T285 -194T253 -209T214 -214Z" />
<glyph unicode="&#xb9;" glyph-name="onesuperior" horiz-adv-x="243" d="M111 649L30 595V654L119 715H179V373H111V649Z" />
<glyph unicode="&#xba;" glyph-name="ordmasculine" horiz-adv-x="505" d="M253 354Q313 354 346 395T380 504V510Q380 579 346 619T253 660Q193 660 159 620T125 510V504Q125 435 159 395T253 354ZM252 290Q207 290 169 306T102 350T59 417T43 503V509Q43 557
59 596T103 664T169 708T253 724Q298 724 336 709T402 665T446 598T462 511V505Q462 457 446 417T402 349T336 306T252 290Z" />
<glyph unicode="&#xbb;" glyph-name="guillemotright" horiz-adv-x="512" d="M182 261L57 439H139L269 261L139 83H57L182 261ZM360 261L235 439H317L447 261L317 83H235L360 261Z" />
<glyph unicode="&#xbc;" glyph-name="onequarter" horiz-adv-x="690" d="M114 649L33 595V654L122 715H182V373H114V649ZM562 715H628L121 0H55L562 715ZM552 70H380V94L533 343H616V119H661V70H616V1H552V70ZM553 119V292L452 119H553Z" />
<glyph unicode="&#xbd;" glyph-name="onehalf" horiz-adv-x="689" d="M114 649L33 595V654L122 715H182V373H114V649ZM549 715H615L108 0H42L549 715ZM401 12L529 148Q554 174 568 197T583 245Q583 268 570 281T533 295Q508 295 493 280T473 229H412Q415 286 447
316T535 347Q589 347 619 320T649 246Q649 212 631 183T583 124L510 52H652V1H401V12Z" />
<glyph unicode="&#xbe;" glyph-name="threequarters" horiz-adv-x="693" d="M161 368Q98 368 65 398T30 479H91Q94 453 109 436T159 418Q191 418 206 432T222 472Q222 526 162 526H136V573H161Q217 573 217 622Q217 642 204 655T165 669Q139 669 123 655T103 614H42Q45
660 77 689T166 719Q221 719 251 693T281 627Q281 598 266 580T224 553Q254 546 272 526T291 471Q291 423 256 396T161 368ZM598 715H664L157 0H91L598 715ZM552 70H380V94L533 343H616V119H661V70H616V1H552V70ZM553 119V292L452 119H553Z" />
<glyph unicode="&#xbf;" glyph-name="questiondown" horiz-adv-x="501" d="M316 346Q316 316 307 291T284 244T251 203T213 166Q184 137 162 108T140 43Q140 -2 165 -29T247 -57Q304 -57 339 -22T380 73H458Q455 29 439 -7T395 -70T330 -111T246 -126Q195 -126
159 -112T100 -75T67 -21T56 40Q56 68 64 91T87 134T118 172T154 207Q171 223 187 239T215 273T234 310T242 353V396H316V346ZM281 603Q307 603 326 585T345 539Q345 512 326 494T281 475Q255 475 236 493T217 539Q217 566 236 584T281 603Z" />
<glyph unicode="&#xc0;" glyph-name="Agrave" horiz-adv-x="686" d="M288 715H402L644 0H558L488 206H193L124 0H42L288 715ZM217 275H465L341 643L217 275ZM220 898H324L380 771H318L220 898Z" />
<glyph unicode="&#xc1;" glyph-name="Aacute" horiz-adv-x="686" d="M288 715H402L644 0H558L488 206H193L124 0H42L288 715ZM217 275H465L341 643L217 275ZM362 898H466L368 771H306L362 898Z" />
<glyph unicode="&#xc2;" glyph-name="Acircumflex" horiz-adv-x="686" d="M288 715H402L644 0H558L488 206H193L124 0H42L288 715ZM217 275H465L341 643L217 275ZM306 898H381L488 771H427L342 829L257 771H198L306 898Z" />
<glyph unicode="&#xc3;" glyph-name="Atilde" horiz-adv-x="686" d="M288 715H402L644 0H558L488 206H193L124 0H42L288 715ZM217 275H465L341 643L217 275ZM397 774Q381 774 366 780T338 795T312 810T289 817Q275 817 264 805T249 772H189Q195 826 223 857T290
888Q306 888 320 882T348 867T374 852T397 845Q411 845 422 857T437 890H497Q491 836 463 805T397 774Z" />
<glyph unicode="&#xc4;" glyph-name="Adieresis" horiz-adv-x="686" d="M288 715H402L644 0H558L488 206H193L124 0H42L288 715ZM217 275H465L341 643L217 275ZM241 789Q219 789 204 804T188 842Q188 864 203 879T241 895Q263 895 278 880T294 842Q294 820 279
805T241 789ZM444 789Q422 789 407 804T391 842Q391 864 406 879T444 895Q466 895 481 880T497 842Q497 820 482 805T444 789Z" />
<glyph unicode="&#xc5;" glyph-name="Aring" horiz-adv-x="686" d="M288 715H402L644 0H558L488 206H193L124 0H42L288 715ZM217 275H465L341 643L217 275ZM343 805Q366 805 381 821T396 863Q396 888 381 904T343 921Q320 921 305 905T290 863Q290 838 305 822T343
805ZM343 759Q321 759 302 767T268 789T245 823T236 863Q236 884 244 903T267 936T301 959T343 967Q365 967 384 959T418 937T441 903T450 863Q450 842 442 823T419 790T385 767T343 759Z" />
<glyph unicode="&#xc6;" glyph-name="AE" horiz-adv-x="962" d="M405 715H897V644H567V401H833V330H567V71H915V0H480V207H228L123 0H35L405 715ZM262 275H480V644H449L262 275Z" />
<glyph unicode="&#xc7;" glyph-name="Ccedilla" horiz-adv-x="742" d="M387 -214Q343 -214 317 -191T287 -130H341Q344 -144 354 -155T384 -166Q403 -166 413 -156T424 -130Q424 -114 414 -105T388 -96Q378 -96 371 -99T360 -104L328 -76L365 -8Q294 -3 238 24T142
98T82 209T61 353V361Q61 440 86 507T156 623T262 699T397 726Q453 726 503 711T592 667T656 594T687 492H601Q587 574 539 615T398 657Q342 657 297 636T219 577T169 484T151 362V354Q151 286 168 232T216 140T293 82T397 62Q485 62 542 105T613 237H694Q676 119
603 58T418 -8L394 -53Q411 -51 428 -54T458 -68T480 -94T488 -134Q488 -154 480 -169T458 -194T426 -209T387 -214Z" />
<glyph unicode="&#xc8;" glyph-name="Egrave" horiz-adv-x="578" d="M96 715H513V644H183V401H449V330H183V71H531V0H96V715ZM189 898H293L349 771H287L189 898Z" />
<glyph unicode="&#xc9;" glyph-name="Eacute" horiz-adv-x="578" d="M96 715H513V644H183V401H449V330H183V71H531V0H96V715ZM331 898H435L337 771H275L331 898Z" />
<glyph unicode="&#xca;" glyph-name="Ecircumflex" horiz-adv-x="578" d="M96 715H513V644H183V401H449V330H183V71H531V0H96V715ZM275 898H350L457 771H396L311 829L226 771H167L275 898Z" />
<glyph unicode="&#xcb;" glyph-name="Edieresis" horiz-adv-x="578" d="M96 715H513V644H183V401H449V330H183V71H531V0H96V715ZM210 789Q188 789 173 804T157 842Q157 864 172 879T210 895Q232 895 247 880T263 842Q263 820 248 805T210 789ZM413 789Q391 789
376 804T360 842Q360 864 375 879T413 895Q435 895 450 880T466 842Q466 820 451 805T413 789Z" />
<glyph unicode="&#xcc;" glyph-name="Igrave" horiz-adv-x="289" d="M101 715H188V0H101V715ZM278 898H382L438 771H376L278 898Z" />
<glyph unicode="&#xcd;" glyph-name="Iacute" horiz-adv-x="289" d="M101 715H188V0H101V715ZM420 898H524L426 771H364L420 898Z" />
<glyph unicode="&#xce;" glyph-name="Icircumflex" horiz-adv-x="289" d="M101 715H188V0H101V715ZM364 898H439L546 771H485L400 829L315 771H256L364 898Z" />
<glyph unicode="&#xcf;" glyph-name="Idieresis" horiz-adv-x="289" d="M101 715H188V0H101V715ZM299 789Q277 789 262 804T246 842Q246 864 261 879T299 895Q321 895 336 880T352 842Q352 820 337 805T299 789ZM502 789Q480 789 465 804T449 842Q449 864 464
879T502 895Q524 895 539 880T555 842Q555 820 540 805T502 789Z" />
<glyph unicode="&#xd0;" glyph-name="Eth" horiz-adv-x="728" d="M40 392H116V715H305Q397 715 465 688T578 614T645 503T667 364V355Q667 281 646 216T579 103T466 28T303 0H116V325H40V392ZM301 71Q370 71 421 91T507 148T559 237T577 356V364Q577 426 562 477T513
566T427 624T300 645H203V392H410V325H203V71H301Z" />
<glyph unicode="&#xd1;" glyph-name="Ntilde" horiz-adv-x="736" d="M96 715H209L557 124V715H640V0H540L179 613V0H96V715ZM432 774Q416 774 401 780T373 795T347 810T324 817Q310 817 299 805T284 772H224Q230 826 258 857T325 888Q341 888 355 882T383 867T409
852T432 845Q446 845 457 857T472 890H532Q526 836 498 805T432 774Z" />
<glyph unicode="&#xd2;" glyph-name="Ograve" horiz-adv-x="823" d="M415 63Q475 63 522 84T603 144T654 237T672 356V364Q672 424 655 477T604 569T523 631T413 654Q351 654 302 633T220 572T169 480T151 362V354Q151 289 171 236T227 144T311 84T415 63ZM415
-9Q336 -9 271 19T159 97T87 212T61 353V361Q61 437 86 503T158 619T269 696T413 724Q492 724 556 696T666 619T737 504T762 363V355Q762 279 737 213T667 98T557 20T415 -9ZM288 898H392L448 771H386L288 898Z" />
<glyph unicode="&#xd3;" glyph-name="Oacute" horiz-adv-x="823" d="M415 63Q475 63 522 84T603 144T654 237T672 356V364Q672 424 655 477T604 569T523 631T413 654Q351 654 302 633T220 572T169 480T151 362V354Q151 289 171 236T227 144T311 84T415 63ZM415
-9Q336 -9 271 19T159 97T87 212T61 353V361Q61 437 86 503T158 619T269 696T413 724Q492 724 556 696T666 619T737 504T762 363V355Q762 279 737 213T667 98T557 20T415 -9ZM430 898H534L436 771H374L430 898Z" />
<glyph unicode="&#xd4;" glyph-name="Ocircumflex" horiz-adv-x="823" d="M415 63Q475 63 522 84T603 144T654 237T672 356V364Q672 424 655 477T604 569T523 631T413 654Q351 654 302 633T220 572T169 480T151 362V354Q151 289 171 236T227 144T311 84T415 63ZM415
-9Q336 -9 271 19T159 97T87 212T61 353V361Q61 437 86 503T158 619T269 696T413 724Q492 724 556 696T666 619T737 504T762 363V355Q762 279 737 213T667 98T557 20T415 -9ZM374 898H449L556 771H495L410 829L325 771H266L374 898Z" />
<glyph unicode="&#xd5;" glyph-name="Otilde" horiz-adv-x="823" d="M415 63Q475 63 522 84T603 144T654 237T672 356V364Q672 424 655 477T604 569T523 631T413 654Q351 654 302 633T220 572T169 480T151 362V354Q151 289 171 236T227 144T311 84T415 63ZM415
-9Q336 -9 271 19T159 97T87 212T61 353V361Q61 437 86 503T158 619T269 696T413 724Q492 724 556 696T666 619T737 504T762 363V355Q762 279 737 213T667 98T557 20T415 -9ZM465 774Q449 774 434 780T406 795T380 810T357 817Q343 817 332 805T317 772H257Q263
826 291 857T358 888Q374 888 388 882T416 867T442 852T465 845Q479 845 490 857T505 890H565Q559 836 531 805T465 774Z" />
<glyph unicode="&#xd6;" glyph-name="Odieresis" horiz-adv-x="823" d="M415 63Q475 63 522 84T603 144T654 237T672 356V364Q672 424 655 477T604 569T523 631T413 654Q351 654 302 633T220 572T169 480T151 362V354Q151 289 171 236T227 144T311 84T415 63ZM415
-9Q336 -9 271 19T159 97T87 212T61 353V361Q61 437 86 503T158 619T269 696T413 724Q492 724 556 696T666 619T737 504T762 363V355Q762 279 737 213T667 98T557 20T415 -9ZM309 789Q287 789 272 804T256 842Q256 864 271 879T309 895Q331 895 346 880T362 842Q362
820 347 805T309 789ZM512 789Q490 789 475 804T459 842Q459 864 474 879T512 895Q534 895 549 880T565 842Q565 820 550 805T512 789Z" />
<glyph unicode="&#xd7;" glyph-name="multiply" horiz-adv-x="481" d="M39 179L193 333L39 487L86 535L240 380L394 535L442 487L288 333L442 179L394 131L240 286L86 131L39 179Z" />
<glyph unicode="&#xd8;" glyph-name="Oslash" horiz-adv-x="823" d="M41 12L139 119Q101 167 81 226T61 353V361Q61 437 86 503T158 619T269 696T413 724Q476 724 530 706T627 654L708 742L753 697L674 610Q716 562 739 499T762 363V355Q762 279 737 213T667 98T557
20T415 -9Q346 -9 287 13T183 73L86 -33L41 12ZM415 63Q475 63 522 84T603 144T654 237T672 356V364Q672 476 620 552L236 131Q271 97 316 80T415 63ZM151 354Q151 302 162 259T195 181L577 599Q545 625 505 639T413 654Q351 654 302 633T220 572T169 480T151 362V354Z"
/>
<glyph unicode="&#xd9;" glyph-name="Ugrave" horiz-adv-x="708" d="M347 -9Q223 -9 157 60T90 261V715H177V271Q177 215 187 176T218 111T271 75T349 63Q392 63 425 73T482 108T518 175T531 284V715H618V272Q618 141 552 66T347 -9ZM231 898H335L391 771H329L231 898Z" />
<glyph unicode="&#xda;" glyph-name="Uacute" horiz-adv-x="708" d="M347 -9Q223 -9 157 60T90 261V715H177V271Q177 215 187 176T218 111T271 75T349 63Q392 63 425 73T482 108T518 175T531 284V715H618V272Q618 141 552 66T347 -9ZM373 898H477L379 771H317L373 898Z" />
<glyph unicode="&#xdb;" glyph-name="Ucircumflex" horiz-adv-x="708" d="M347 -9Q223 -9 157 60T90 261V715H177V271Q177 215 187 176T218 111T271 75T349 63Q392 63 425 73T482 108T518 175T531 284V715H618V272Q618 141 552 66T347 -9ZM317 898H392L499 771H438L353
829L268 771H209L317 898Z" />
<glyph unicode="&#xdc;" glyph-name="Udieresis" horiz-adv-x="708" d="M347 -9Q223 -9 157 60T90 261V715H177V271Q177 215 187 176T218 111T271 75T349 63Q392 63 425 73T482 108T518 175T531 284V715H618V272Q618 141 552 66T347 -9ZM252 789Q230 789 215 804T199
842Q199 864 214 879T252 895Q274 895 289 880T305 842Q305 820 290 805T252 789ZM455 789Q433 789 418 804T402 842Q402 864 417 879T455 895Q477 895 492 880T508 842Q508 820 493 805T455 789Z" />
<glyph unicode="&#xdd;" glyph-name="Yacute" horiz-adv-x="610" d="M268 312L29 715H127L314 383L494 715H581L355 311V0H268V312ZM324 898H428L330 771H268L324 898Z" />
<glyph unicode="&#xde;" glyph-name="Thorn" horiz-adv-x="593" d="M96 715H183V581H299Q350 581 395 570T475 535T529 471T549 376V372Q549 315 529 276T475 212T396 176T299 165H183V0H96V715ZM305 234Q382 234 422 268T462 372V376Q462 414 451 440T420 481T371
504T305 511H183V234H305Z" />
<glyph unicode="&#xdf;" glyph-name="germandbls" horiz-adv-x="602" d="M341 -9Q309 -9 285 -4T249 7V78Q263 71 285 66T337 60Q360 60 383 66T425 88T455 134T467 210V217Q467 257 453 290T414 346T352 380T271 391V462Q313 461 342 472T388 503T412 546T420
593V597Q420 651 389 679T298 708Q241 708 207 671T173 570V0H90V566Q90 614 107 653T152 719T219 761T299 776Q344 776 380 763T443 727T484 670T499 597V593Q499 569 492 545T469 499T432 460T380 432Q419 422 450 402T505 354T540 292T553 218V212Q553 149 535
107T488 39T420 2T341 -9Z" />
<glyph unicode="&#xe0;" glyph-name="agrave" horiz-adv-x="552" d="M221 -9Q185 -9 153 0T98 28T61 76T47 145Q47 190 69 221T127 271T211 298T309 307H384V345Q384 408 358 435T272 463Q164 463 152 369H69Q73 414 91 445T138 495T202 523T276 532Q313 532 348
524T409 494T451 436T467 345V0H384V66Q355 29 317 10T221 -9ZM229 57Q262 57 290 65T339 90T372 129T384 183V248H312Q273 248 240 243T182 225T144 194T130 145Q130 104 152 81T229 57ZM148 760H252L314 613H252L148 760Z" />
<glyph unicode="&#xe1;" glyph-name="aacute" horiz-adv-x="552" d="M221 -9Q185 -9 153 0T98 28T61 76T47 145Q47 190 69 221T127 271T211 298T309 307H384V345Q384 408 358 435T272 463Q164 463 152 369H69Q73 414 91 445T138 495T202 523T276 532Q313 532 348
524T409 494T451 436T467 345V0H384V66Q355 29 317 10T221 -9ZM229 57Q262 57 290 65T339 90T372 129T384 183V248H312Q273 248 240 243T182 225T144 194T130 145Q130 104 152 81T229 57ZM302 760H406L302 613H240L302 760Z" />
<glyph unicode="&#xe2;" glyph-name="acircumflex" horiz-adv-x="552" d="M221 -9Q185 -9 153 0T98 28T61 76T47 145Q47 190 69 221T127 271T211 298T309 307H384V345Q384 408 358 435T272 463Q164 463 152 369H69Q73 414 91 445T138 495T202 523T276 532Q313
532 348 524T409 494T451 436T467 345V0H384V66Q355 29 317 10T221 -9ZM229 57Q262 57 290 65T339 90T372 129T384 183V248H312Q273 248 240 243T182 225T144 194T130 145Q130 104 152 81T229 57ZM229 757H304L411 613H350L265 688L180 613H121L229 757Z" />
<glyph unicode="&#xe3;" glyph-name="atilde" horiz-adv-x="552" d="M221 -9Q185 -9 153 0T98 28T61 76T47 145Q47 190 69 221T127 271T211 298T309 307H384V345Q384 408 358 435T272 463Q164 463 152 369H69Q73 414 91 445T138 495T202 523T276 532Q313 532 348
524T409 494T451 436T467 345V0H384V66Q355 29 317 10T221 -9ZM229 57Q262 57 290 65T339 90T372 129T384 183V248H312Q273 248 240 243T182 225T144 194T130 145Q130 104 152 81T229 57ZM331 619Q315 619 300 625T272 640T246 655T223 662Q209 662 198 650T183
617H123Q129 671 157 702T224 733Q240 733 254 727T282 712T308 697T331 690Q345 690 356 702T371 735H431Q425 681 397 650T331 619Z" />
<glyph unicode="&#xe4;" glyph-name="adieresis" horiz-adv-x="552" d="M221 -9Q185 -9 153 0T98 28T61 76T47 145Q47 190 69 221T127 271T211 298T309 307H384V345Q384 408 358 435T272 463Q164 463 152 369H69Q73 414 91 445T138 495T202 523T276 532Q313 532
348 524T409 494T451 436T467 345V0H384V66Q355 29 317 10T221 -9ZM229 57Q262 57 290 65T339 90T372 129T384 183V248H312Q273 248 240 243T182 225T144 194T130 145Q130 104 152 81T229 57ZM183 634Q161 634 146 649T130 687Q130 709 145 724T183 740Q205 740
220 725T236 687Q236 665 221 650T183 634ZM371 634Q349 634 334 649T318 687Q318 709 333 724T371 740Q393 740 408 725T424 687Q424 665 409 650T371 634Z" />
<glyph unicode="&#xe5;" glyph-name="aring" horiz-adv-x="552" d="M221 -9Q185 -9 153 0T98 28T61 76T47 145Q47 190 69 221T127 271T211 298T309 307H384V345Q384 408 358 435T272 463Q164 463 152 369H69Q73 414 91 445T138 495T202 523T276 532Q313 532 348
524T409 494T451 436T467 345V0H384V66Q355 29 317 10T221 -9ZM229 57Q262 57 290 65T339 90T372 129T384 183V248H312Q273 248 240 243T182 225T144 194T130 145Q130 104 152 81T229 57ZM277 644Q300 644 315 660T330 702Q330 727 315 743T277 760Q254 760 239
744T224 702Q224 677 239 661T277 644ZM277 598Q255 598 236 606T202 628T179 662T170 702Q170 723 178 742T201 775T235 798T277 806Q299 806 318 798T352 776T375 742T384 702Q384 681 376 662T353 629T319 606T277 598Z" />
<glyph unicode="&#xe6;" glyph-name="ae" horiz-adv-x="892" d="M622 -9Q556 -9 506 19T425 99Q389 42 341 17T221 -9Q185 -9 153 0T98 28T61 76T47 145Q47 191 68 222T126 273T209 301T306 310H384V344Q384 407 357 435T272 463Q164 463 152 369H69Q73 414 91
445T138 495T202 523T276 532Q328 532 372 513T440 443Q470 485 514 508T616 532Q659 532 700 518T773 473T824 393T843 272V247H464Q467 157 506 109T623 60Q740 60 756 151H839Q825 72 766 32T622 -9ZM229 57Q262 57 290 65T339 90T372 129T384 183V247H309Q270
247 237 242T180 225T143 194T130 145Q130 104 152 81T229 57ZM758 310Q752 393 716 428T616 463Q555 463 516 422T467 310H758Z" />
<glyph unicode="&#xe7;" glyph-name="ccedilla" horiz-adv-x="582" d="M292 -214Q248 -214 222 -191T192 -130H246Q249 -144 259 -155T289 -166Q308 -166 318 -156T329 -130Q329 -114 319 -105T293 -96Q283 -96 276 -99T265 -104L233 -76L271 -7Q223 -1 183 19T113
74T68 154T51 256V264Q51 324 71 373T125 458T206 512T305 532Q346 532 384 522T453 491T505 434T532 349H450Q440 411 400 437T305 463Q269 463 239 449T186 410T150 347T137 264V256Q137 159 184 110T308 60Q336 60 361 68T407 92T441 132T458 188H535Q531 147
514 113T469 52T404 11T323 -8L299 -53Q316 -51 333 -54T363 -68T385 -94T393 -134Q393 -154 385 -169T363 -194T331 -209T292 -214Z" />
<glyph unicode="&#xe8;" glyph-name="egrave" horiz-adv-x="580" d="M304 -9Q248 -9 202 10T122 63T70 147T51 256V264Q51 323 69 372T119 457T197 512T296 532Q341 532 383 518T459 472T511 392T531 272V245H137Q140 155 182 108T305 60Q428 60 444 151H527Q513
72 453 32T304 -9ZM446 312Q440 393 401 428T296 463Q232 463 192 423T140 312H446ZM167 760H271L333 613H271L167 760Z" />
<glyph unicode="&#xe9;" glyph-name="eacute" horiz-adv-x="580" d="M304 -9Q248 -9 202 10T122 63T70 147T51 256V264Q51 323 69 372T119 457T197 512T296 532Q341 532 383 518T459 472T511 392T531 272V245H137Q140 155 182 108T305 60Q428 60 444 151H527Q513
72 453 32T304 -9ZM446 312Q440 393 401 428T296 463Q232 463 192 423T140 312H446ZM321 760H425L321 613H259L321 760Z" />
<glyph unicode="&#xea;" glyph-name="ecircumflex" horiz-adv-x="580" d="M304 -9Q248 -9 202 10T122 63T70 147T51 256V264Q51 323 69 372T119 457T197 512T296 532Q341 532 383 518T459 472T511 392T531 272V245H137Q140 155 182 108T305 60Q428 60 444 151H527Q513
72 453 32T304 -9ZM446 312Q440 393 401 428T296 463Q232 463 192 423T140 312H446ZM259 757H334L441 613H380L295 688L210 613H151L259 757Z" />
<glyph unicode="&#xeb;" glyph-name="edieresis" horiz-adv-x="580" d="M304 -9Q248 -9 202 10T122 63T70 147T51 256V264Q51 323 69 372T119 457T197 512T296 532Q341 532 383 518T459 472T511 392T531 272V245H137Q140 155 182 108T305 60Q428 60 444 151H527Q513
72 453 32T304 -9ZM446 312Q440 393 401 428T296 463Q232 463 192 423T140 312H446ZM202 634Q180 634 165 649T149 687Q149 709 164 724T202 740Q224 740 239 725T255 687Q255 665 240 650T202 634ZM390 634Q368 634 353 649T337 687Q337 709 352 724T390 740Q412
740 427 725T443 687Q443 665 428 650T390 634Z" />
<glyph unicode="&#xec;" glyph-name="igrave" horiz-adv-x="267" d="M92 523H175V0H92V523ZM261 760H365L427 613H365L261 760Z" />
<glyph unicode="&#xed;" glyph-name="iacute" horiz-adv-x="267" d="M92 523H175V0H92V523ZM415 760H519L415 613H353L415 760Z" />
<glyph unicode="&#xee;" glyph-name="icircumflex" horiz-adv-x="267" d="M92 523H175V0H92V523ZM353 757H428L535 613H474L389 688L304 613H245L353 757Z" />
<glyph unicode="&#xef;" glyph-name="idieresis" horiz-adv-x="267" d="M43 634Q21 634 6 649T-10 687Q-10 709 5 724T43 740Q65 740 80 725T96 687Q96 665 81 650T43 634ZM223 634Q201 634 186 649T170 687Q170 709 185 724T223 740Q245 740 260 725T276 687Q276
665 261 650T223 634ZM92 523H175V0H92V523Z" />
<glyph unicode="&#xf0;" glyph-name="eth" horiz-adv-x="616" d="M162 621L259 678Q229 704 198 728T135 773H242Q261 762 282 749T326 718L409 767L438 718L371 679Q408 644 443 602T505 509T548 402T565 284V262Q565 203 546 153T492 67T410 11T307 -9Q251 -9
204 11T123 66T70 151T51 257V265Q51 324 70 373T122 457T198 512T289 532Q341 532 378 512T440 460Q416 508 381 553T303 639L191 573L162 621ZM308 60Q347 60 379 74T433 114T467 176T479 257V264Q479 309 467 346T433 409T380 449T309 463Q270 463 238 449T184
409T149 347T137 265V257Q137 167 182 114T308 60Z" />
<glyph unicode="&#xf1;" glyph-name="ntilde" horiz-adv-x="610" d="M90 523H173V440Q191 477 233 504T341 532Q381 532 415 521T473 484T511 418T525 321V0H442V327Q442 396 412 428T319 460Q290 460 264 451T217 424T185 379T173 317V0H90V523ZM358 619Q342
619 327 625T299 640T273 655T250 662Q236 662 225 650T210 617H150Q156 671 184 702T251 733Q267 733 281 727T309 712T335 697T358 690Q372 690 383 702T398 735H458Q452 681 424 650T358 619Z" />
<glyph unicode="&#xf2;" glyph-name="ograve" horiz-adv-x="616" d="M308 60Q347 60 379 74T433 114T467 176T479 257V264Q479 309 467 346T433 409T379 449T308 463Q269 463 237 449T183 409T149 347T137 265V257Q137 167 182 114T308 60ZM307 -9Q251 -9 204
11T123 66T70 151T51 257V265Q51 324 70 373T124 457T205 512T308 532Q363 532 410 513T492 458T545 374T565 266V258Q565 199 546 150T492 65T410 11T307 -9ZM179 760H283L345 613H283L179 760Z" />
<glyph unicode="&#xf3;" glyph-name="oacute" horiz-adv-x="616" d="M308 60Q347 60 379 74T433 114T467 176T479 257V264Q479 309 467 346T433 409T379 449T308 463Q269 463 237 449T183 409T149 347T137 265V257Q137 167 182 114T308 60ZM307 -9Q251 -9 204
11T123 66T70 151T51 257V265Q51 324 70 373T124 457T205 512T308 532Q363 532 410 513T492 458T545 374T565 266V258Q565 199 546 150T492 65T410 11T307 -9ZM333 760H437L333 613H271L333 760Z" />
<glyph unicode="&#xf4;" glyph-name="ocircumflex" horiz-adv-x="616" d="M308 60Q347 60 379 74T433 114T467 176T479 257V264Q479 309 467 346T433 409T379 449T308 463Q269 463 237 449T183 409T149 347T137 265V257Q137 167 182 114T308 60ZM307 -9Q251 -9
204 11T123 66T70 151T51 257V265Q51 324 70 373T124 457T205 512T308 532Q363 532 410 513T492 458T545 374T565 266V258Q565 199 546 150T492 65T410 11T307 -9ZM271 757H346L453 613H392L307 688L222 613H163L271 757Z" />
<glyph unicode="&#xf5;" glyph-name="otilde" horiz-adv-x="616" d="M308 60Q347 60 379 74T433 114T467 176T479 257V264Q479 309 467 346T433 409T379 449T308 463Q269 463 237 449T183 409T149 347T137 265V257Q137 167 182 114T308 60ZM307 -9Q251 -9 204
11T123 66T70 151T51 257V265Q51 324 70 373T124 457T205 512T308 532Q363 532 410 513T492 458T545 374T565 266V258Q565 199 546 150T492 65T410 11T307 -9ZM362 619Q346 619 331 625T303 640T277 655T254 662Q240 662 229 650T214 617H154Q160 671 188 702T255
733Q271 733 285 727T313 712T339 697T362 690Q376 690 387 702T402 735H462Q456 681 428 650T362 619Z" />
<glyph unicode="&#xf6;" glyph-name="odieresis" horiz-adv-x="616" d="M308 60Q347 60 379 74T433 114T467 176T479 257V264Q479 309 467 346T433 409T379 449T308 463Q269 463 237 449T183 409T149 347T137 265V257Q137 167 182 114T308 60ZM307 -9Q251 -9 204
11T123 66T70 151T51 257V265Q51 324 70 373T124 457T205 512T308 532Q363 532 410 513T492 458T545 374T565 266V258Q565 199 546 150T492 65T410 11T307 -9ZM214 634Q192 634 177 649T161 687Q161 709 176 724T214 740Q236 740 251 725T267 687Q267 665 252 650T214
634ZM402 634Q380 634 365 649T349 687Q349 709 364 724T402 740Q424 740 439 725T455 687Q455 665 440 650T402 634Z" />
<glyph unicode="&#xf7;" glyph-name="divide" horiz-adv-x="531" d="M265 89Q239 89 220 107T201 153Q201 180 220 198T265 217Q291 217 310 199T329 153Q329 126 310 108T265 89ZM42 377H489V307H42V377ZM265 467Q239 467 220 485T201 531Q201 558 220 576T265
595Q291 595 310 577T329 531Q329 504 310 486T265 467Z" />
<glyph unicode="&#xf8;" glyph-name="oslash" horiz-adv-x="616" d="M29 1L106 86Q80 120 66 163T51 257V265Q51 324 70 373T124 457T205 512T308 532Q353 532 392 519T464 482L532 556L576 518L506 441Q534 406 549 362T565 266V258Q565 199 546 150T492 65T410
11T307 -9Q259 -9 219 5T147 45L73 -37L29 1ZM308 60Q347 60 379 74T433 114T467 176T479 257V264Q479 299 472 328T452 381L196 100Q241 60 308 60ZM137 257Q137 192 161 146L414 426Q371 463 308 463Q269 463 237 449T183 409T149 347T137 265V257Z" />
<glyph unicode="&#xf9;" glyph-name="ugrave" horiz-adv-x="606" d="M267 -9Q228 -9 195 2T137 37T99 100T85 192V523H168V196Q168 127 197 95T289 63Q317 63 343 72T389 99T421 144T433 206V523H516V0H433V83Q415 46 373 19T267 -9ZM174 760H278L340 613H278L174 760Z" />
<glyph unicode="&#xfa;" glyph-name="uacute" horiz-adv-x="606" d="M267 -9Q228 -9 195 2T137 37T99 100T85 192V523H168V196Q168 127 197 95T289 63Q317 63 343 72T389 99T421 144T433 206V523H516V0H433V83Q415 46 373 19T267 -9ZM328 760H432L328 613H266L328 760Z" />
<glyph unicode="&#xfb;" glyph-name="ucircumflex" horiz-adv-x="606" d="M267 -9Q228 -9 195 2T137 37T99 100T85 192V523H168V196Q168 127 197 95T289 63Q317 63 343 72T389 99T421 144T433 206V523H516V0H433V83Q415 46 373 19T267 -9ZM266 757H341L448 613H387L302
688L217 613H158L266 757Z" />
<glyph unicode="&#xfc;" glyph-name="udieresis" horiz-adv-x="606" d="M267 -9Q228 -9 195 2T137 37T99 100T85 192V523H168V196Q168 127 197 95T289 63Q317 63 343 72T389 99T421 144T433 206V523H516V0H433V83Q415 46 373 19T267 -9ZM209 634Q187 634 172 649T156
687Q156 709 171 724T209 740Q231 740 246 725T262 687Q262 665 247 650T209 634ZM397 634Q375 634 360 649T344 687Q344 709 359 724T397 740Q419 740 434 725T450 687Q450 665 435 650T397 634Z" />
<glyph unicode="&#xfd;" glyph-name="yacute" horiz-adv-x="541" d="M236 54L31 523H120L280 148L425 523H510L221 -182H137L236 54ZM303 760H407L303 613H241L303 760Z" />
<glyph unicode="&#xfe;" glyph-name="thorn" horiz-adv-x="639" d="M90 773H173V435Q184 454 202 471T244 502T294 524T350 532Q401 532 445 514T520 462T570 379T588 269V261Q588 201 571 152T523 66T448 11T350 -9Q285 -9 241 19T173 86V-182H90V773ZM342 60Q420
60 461 110T502 257V265Q502 314 489 351T455 413T404 450T341 463Q305 463 274 451T219 415T183 353T170 265V257Q170 207 182 170T217 109T272 72T342 60Z" />
<glyph unicode="&#xff;" glyph-name="ydieresis" horiz-adv-x="541" d="M236 54L31 523H120L280 148L425 523H510L221 -182H137L236 54ZM184 634Q162 634 147 649T131 687Q131 709 146 724T184 740Q206 740 221 725T237 687Q237 665 222 650T184 634ZM372 634Q350
634 335 649T319 687Q319 709 334 724T372 740Q394 740 409 725T425 687Q425 665 410 650T372 634Z" />
<glyph unicode="&#x100;" glyph-name="Amacron" horiz-adv-x="674" d="M288 715H402L644 0H558L488 206H193L124 0H42L288 715ZM217 275H465L341 643L217 275ZM210 850H476V786H210V850Z" />
<glyph unicode="&#x101;" glyph-name="amacron" horiz-adv-x="540" d="M221 -9Q185 -9 153 0T98 28T61 76T47 145Q47 190 69 221T127 271T211 298T309 307H384V345Q384 408 358 435T272 463Q164 463 152 369H69Q73 414 91 445T138 495T202 523T276 532Q313 532
348 524T409 494T451 436T467 345V0H384V66Q355 29 317 10T221 -9ZM229 57Q262 57 290 65T339 90T372 129T384 183V248H312Q273 248 240 243T182 225T144 194T130 145Q130 104 152 81T229 57ZM146 712H408V648H146V712Z" />
<glyph unicode="&#x102;" glyph-name="Abreve" horiz-adv-x="674" d="M288 715H402L644 0H558L488 206H193L124 0H42L288 715ZM217 275H465L341 643L217 275ZM341 767Q314 767 291 777T250 804T221 846T209 899H275Q280 870 295 853T341 835Q373 835 390 852T413
899H477Q475 870 464 846T435 805T392 777T341 767Z" />
<glyph unicode="&#x103;" glyph-name="abreve" horiz-adv-x="540" d="M221 -9Q185 -9 153 0T98 28T61 76T47 145Q47 190 69 221T127 271T211 298T309 307H384V345Q384 408 358 435T272 463Q164 463 152 369H69Q73 414 91 445T138 495T202 523T276 532Q313 532
348 524T409 494T451 436T467 345V0H384V66Q355 29 317 10T221 -9ZM229 57Q262 57 290 65T339 90T372 129T384 183V248H312Q273 248 240 243T182 225T144 194T130 145Q130 104 152 81T229 57ZM275 619Q248 619 225 629T184 656T155 698T143 751H209Q214 722 229
705T275 687Q307 687 324 704T347 751H411Q409 722 398 698T369 657T326 629T275 619Z" />
<glyph unicode="&#x104;" glyph-name="Aogonek" horiz-adv-x="674" d="M585 -182Q538 -182 510 -161T481 -102Q481 -71 502 -45T553 -3L482 206H187L118 0H36L282 715H396L637 3Q595 -21 578 -42T560 -86Q560 -122 598 -122Q611 -122 625 -120T650 -111V-170Q637
-175 622 -178T585 -182ZM211 275H459L335 643L211 275Z" />
<glyph unicode="&#x105;" glyph-name="aogonek" horiz-adv-x="540" d="M407 -182Q360 -182 332 -161T303 -102Q303 -70 324 -44T378 -1V66Q349 29 311 10T215 -9Q179 -9 147 0T92 28T55 76T41 145Q41 190 63 221T121 271T205 298T303 307H378V345Q378 408 352
435T266 463Q158 463 146 369H63Q67 414 85 445T132 495T196 523T270 532Q307 532 342 524T403 494T445 436T461 345V4Q382 -41 382 -86Q382 -122 420 -122Q433 -122 447 -120T472 -111V-170Q459 -175 444 -178T407 -182ZM223 57Q256 57 284 65T333 90T366 129T378
183V248H306Q267 248 234 243T176 225T138 194T124 145Q124 104 146 81T223 57Z" />
<glyph unicode="&#x106;" glyph-name="Cacute" horiz-adv-x="730" d="M395 -9Q317 -9 256 16T151 89T84 203T61 353V361Q61 440 86 507T156 623T262 699T397 726Q453 726 503 711T592 667T656 594T687 492H601Q587 574 539 615T398 657Q342 657 297 636T219 577T169
484T151 362V354Q151 286 168 232T216 140T293 82T397 62Q485 62 542 105T613 237H694Q675 113 595 52T395 -9ZM418 898H522L424 771H362L418 898Z" />
<glyph unicode="&#x107;" glyph-name="cacute" horiz-adv-x="570" d="M307 -9Q252 -9 206 9T125 62T71 146T51 256V264Q51 324 71 373T125 458T206 512T305 532Q346 532 384 522T453 491T505 434T532 349H450Q440 411 400 437T305 463Q269 463 239 449T186 410T150
347T137 264V256Q137 159 184 110T308 60Q336 60 361 68T407 92T441 132T458 188H535Q531 146 513 110T464 47T394 6T307 -9ZM329 760H433L329 613H267L329 760Z" />
<glyph unicode="&#x108;" glyph-name="Ccircumflex" horiz-adv-x="730" d="M395 -9Q317 -9 256 16T151 89T84 203T61 353V361Q61 440 86 507T156 623T262 699T397 726Q453 726 503 711T592 667T656 594T687 492H601Q587 574 539 615T398 657Q342 657 297 636T219
577T169 484T151 362V354Q151 286 168 232T216 140T293 82T397 62Q485 62 542 105T613 237H694Q675 113 595 52T395 -9ZM362 898H437L544 771H483L398 829L313 771H254L362 898Z" />
<glyph unicode="&#x109;" glyph-name="ccircumflex" horiz-adv-x="570" d="M307 -9Q252 -9 206 9T125 62T71 146T51 256V264Q51 324 71 373T125 458T206 512T305 532Q346 532 384 522T453 491T505 434T532 349H450Q440 411 400 437T305 463Q269 463 239 449T186
410T150 347T137 264V256Q137 159 184 110T308 60Q336 60 361 68T407 92T441 132T458 188H535Q531 146 513 110T464 47T394 6T307 -9ZM267 757H342L449 613H388L303 688L218 613H159L267 757Z" />
<glyph unicode="&#x10a;" glyph-name="Cdotaccent" horiz-adv-x="730" d="M395 -9Q317 -9 256 16T151 89T84 203T61 353V361Q61 440 86 507T156 623T262 699T397 726Q453 726 503 711T592 667T656 594T687 492H601Q587 574 539 615T398 657Q342 657 297 636T219
577T169 484T151 362V354Q151 286 168 232T216 140T293 82T397 62Q485 62 542 105T613 237H694Q675 113 595 52T395 -9ZM395 787Q372 787 356 803T340 842Q340 865 356 881T395 897Q418 897 434 881T450 842Q450 819 434 803T395 787Z" />
<glyph unicode="&#x10b;" glyph-name="cdotaccent" horiz-adv-x="570" d="M307 -9Q252 -9 206 9T125 62T71 146T51 256V264Q51 324 71 373T125 458T206 512T305 532Q346 532 384 522T453 491T505 434T532 349H450Q440 411 400 437T305 463Q269 463 239 449T186
410T150 347T137 264V256Q137 159 184 110T308 60Q336 60 361 68T407 92T441 132T458 188H535Q531 146 513 110T464 47T394 6T307 -9ZM304 632Q281 632 265 648T249 687Q249 710 265 726T304 742Q327 742 343 726T359 687Q359 664 343 648T304 632Z" />
<glyph unicode="&#x10c;" glyph-name="Ccaron" horiz-adv-x="730" d="M395 -9Q317 -9 256 16T151 89T84 203T61 353V361Q61 440 86 507T156 623T262 699T397 726Q453 726 503 711T592 667T656 594T687 492H601Q587 574 539 615T398 657Q342 657 297 636T219 577T169
484T151 362V354Q151 286 168 232T216 140T293 82T397 62Q485 62 542 105T613 237H694Q675 113 595 52T395 -9ZM254 898H315L400 840L485 898H544L436 771H361L254 898Z" />
<glyph unicode="&#x10d;" glyph-name="ccaron" horiz-adv-x="570" d="M307 -9Q252 -9 206 9T125 62T71 146T51 256V264Q51 324 71 373T125 458T206 512T305 532Q346 532 384 522T453 491T505 434T532 349H450Q440 411 400 437T305 463Q269 463 239 449T186 410T150
347T137 264V256Q137 159 184 110T308 60Q336 60 361 68T407 92T441 132T458 188H535Q531 146 513 110T464 47T394 6T307 -9ZM159 757H220L305 682L390 757H449L341 613H266L159 757Z" />
<glyph unicode="&#x10e;" glyph-name="Dcaron" horiz-adv-x="696" d="M281 71Q350 71 401 91T487 148T539 237T557 356V364Q557 426 542 477T493 566T407 624T280 645H183V71H281ZM96 715H285Q377 715 445 688T558 614T625 503T647 364V355Q647 281 626 216T559
103T446 28T283 0H96V715ZM177 898H238L323 840L408 898H467L359 771H284L177 898Z" />
<glyph unicode="&#x10f;" glyph-name="dcaron" horiz-adv-x="627" d="M287 -9Q236 -9 193 8T118 59T69 141T51 251V259Q51 319 69 369T119 455T196 512T295 532Q361 532 402 505T466 439V773H549V0H466V90Q455 71 436 53T394 22T343 0T287 -9ZM296 60Q332 60 364
72T419 108T455 170T469 258V266Q469 367 425 415T303 463Q225 463 181 411T137 263V255Q137 205 149 169T183 108T234 72T296 60ZM609 773H703L655 598H597L609 773Z" />
<glyph unicode="&#x110;" glyph-name="Dcroat" horiz-adv-x="716" d="M34 392H110V715H299Q391 715 459 688T572 614T639 503T661 364V355Q661 281 640 216T573 103T460 28T297 0H110V325H34V392ZM295 71Q364 71 415 91T501 148T553 237T571 356V364Q571 426 556
477T507 566T421 624T294 645H197V392H404V325H197V71H295Z" />
<glyph unicode="&#x111;" glyph-name="dcroat" horiz-adv-x="627" d="M282 676H460V773H543V676H618V615H543V0H460V90Q449 71 430 53T388 22T337 0T281 -9Q230 -9 187 8T112 59T63 141T45 251V259Q45 319 63 369T113 455T190 512T289 532Q355 532 396 505T460
439V615H282V676ZM290 60Q326 60 358 72T413 108T449 170T463 258V266Q463 367 419 415T297 463Q219 463 175 411T131 263V255Q131 205 143 169T177 108T228 72T290 60Z" />
<glyph unicode="&#x112;" glyph-name="Emacron" horiz-adv-x="566" d="M96 715H513V644H183V401H449V330H183V71H531V0H96V715ZM179 850H445V786H179V850Z" />
<glyph unicode="&#x113;" glyph-name="emacron" horiz-adv-x="568" d="M304 -9Q248 -9 202 10T122 63T70 147T51 256V264Q51 323 69 372T119 457T197 512T296 532Q341 532 383 518T459 472T511 392T531 272V245H137Q140 155 182 108T305 60Q428 60 444 151H527Q513
72 453 32T304 -9ZM446 312Q440 393 401 428T296 463Q232 463 192 423T140 312H446ZM165 712H427V648H165V712Z" />
<glyph unicode="&#x114;" glyph-name="Ebreve" horiz-adv-x="566" d="M96 715H513V644H183V401H449V330H183V71H531V0H96V715ZM317 767Q290 767 267 777T226 804T197 846T185 899H251Q256 870 271 853T317 835Q349 835 366 852T389 899H453Q451 870 440 846T411
805T368 777T317 767Z" />
<glyph unicode="&#x115;" glyph-name="ebreve" horiz-adv-x="568" d="M304 -9Q248 -9 202 10T122 63T70 147T51 256V264Q51 323 69 372T119 457T197 512T296 532Q341 532 383 518T459 472T511 392T531 272V245H137Q140 155 182 108T305 60Q428 60 444 151H527Q513
72 453 32T304 -9ZM446 312Q440 393 401 428T296 463Q232 463 192 423T140 312H446ZM286 619Q259 619 236 629T195 656T166 698T154 751H220Q225 722 240 705T286 687Q318 687 335 704T358 751H422Q420 722 409 698T380 657T337 629T286 619Z" />
<glyph unicode="&#x116;" glyph-name="Edotaccent" horiz-adv-x="566" d="M96 715H513V644H183V401H449V330H183V71H531V0H96V715ZM312 787Q289 787 273 803T257 842Q257 865 273 881T312 897Q335 897 351 881T367 842Q367 819 351 803T312 787Z" />
<glyph unicode="&#x117;" glyph-name="edotaccent" horiz-adv-x="568" d="M304 -9Q248 -9 202 10T122 63T70 147T51 256V264Q51 323 69 372T119 457T197 512T296 532Q341 532 383 518T459 472T511 392T531 272V245H137Q140 155 182 108T305 60Q428 60 444 151H527Q513
72 453 32T304 -9ZM446 312Q440 393 401 428T296 463Q232 463 192 423T140 312H446ZM296 632Q273 632 257 648T241 687Q241 710 257 726T296 742Q319 742 335 726T351 687Q351 664 335 648T296 632Z" />
<glyph unicode="&#x118;" glyph-name="Eogonek" horiz-adv-x="566" d="M454 -182Q407 -182 379 -161T350 -102Q350 -70 373 -43T428 0H90V715H507V644H177V401H443V330H177V71H525V0H497Q463 -23 446 -43T429 -86Q429 -122 467 -122Q480 -122 494 -120T519 -111V-170Q506
-175 491 -178T454 -182Z" />
<glyph unicode="&#x119;" glyph-name="eogonek" horiz-adv-x="568" d="M388 -182Q341 -182 313 -161T284 -102Q284 -72 304 -47T353 -5Q339 -7 326 -8T298 -9Q242 -9 196 10T116 63T64 147T45 256V264Q45 323 63 372T113 457T191 512T290 532Q335 532 377 518T453
472T505 392T525 272V245H131Q134 155 176 108T299 60Q422 60 438 151H521Q516 121 505 98T480 59T454 31T430 11Q401 -14 382 -38T363 -86Q363 -122 401 -122Q414 -122 428 -120T453 -111V-170Q440 -175 425 -178T388 -182ZM440 312Q434 393 395 428T290 463Q226
463 186 423T134 312H440Z" />
<glyph unicode="&#x11a;" glyph-name="Ecaron" horiz-adv-x="566" d="M96 715H513V644H183V401H449V330H183V71H531V0H96V715ZM171 898H232L317 840L402 898H461L353 771H278L171 898Z" />
<glyph unicode="&#x11b;" glyph-name="ecaron" horiz-adv-x="568" d="M304 -9Q248 -9 202 10T122 63T70 147T51 256V264Q51 323 69 372T119 457T197 512T296 532Q341 532 383 518T459 472T511 392T531 272V245H137Q140 155 182 108T305 60Q428 60 444 151H527Q513
72 453 32T304 -9ZM446 312Q440 393 401 428T296 463Q232 463 192 423T140 312H446ZM151 757H212L297 682L382 757H441L333 613H258L151 757Z" />
<glyph unicode="&#x11c;" glyph-name="Gcircumflex" horiz-adv-x="767" d="M407 -9Q324 -9 260 18T152 93T84 208T61 353V361Q61 439 86 506T157 622T266 698T407 726Q460 726 509 713T597 673T663 602T698 499H611Q596 584 542 620T409 657Q347 657 299 636T218
575T168 482T151 362V354Q151 288 167 234T216 141T296 82T407 61Q465 61 507 79T576 127T617 199T632 289H423V361H717V308Q717 230 695 171T631 72T533 12T407 -9ZM364 898H439L546 771H485L400 829L315 771H256L364 898Z" />
<glyph unicode="&#x11d;" glyph-name="gcircumflex" horiz-adv-x="627" d="M299 -191Q241 -191 199 -178T128 -144T83 -93T62 -30H147Q165 -121 298 -121Q375 -121 420 -83T466 40V116Q455 97 437 79T395 48T344 26T289 17Q238 17 194 35T119 87T69 165T51 265V272Q51
325 69 372T119 455T196 511T295 532Q361 532 402 505T466 439V523H549V35Q549 -22 530 -64T478 -135T400 -177T299 -191ZM298 86Q334 86 365 98T420 134T456 192T469 271V278Q469 366 425 414T303 463Q264 463 233 449T181 411T149 352T137 276V268Q137 225 150
192T184 135T235 99T298 86ZM263 757H338L445 613H384L299 688L214 613H155L263 757Z" />
<glyph unicode="&#x11e;" glyph-name="Gbreve" horiz-adv-x="767" d="M407 -9Q324 -9 260 18T152 93T84 208T61 353V361Q61 439 86 506T157 622T266 698T407 726Q460 726 509 713T597 673T663 602T698 499H611Q596 584 542 620T409 657Q347 657 299 636T218 575T168
482T151 362V354Q151 288 167 234T216 141T296 82T407 61Q465 61 507 79T576 127T617 199T632 289H423V361H717V308Q717 230 695 171T631 72T533 12T407 -9ZM399 767Q372 767 349 777T308 804T279 846T267 899H333Q338 870 353 853T399 835Q431 835 448 852T471
899H535Q533 870 522 846T493 805T450 777T399 767Z" />
<glyph unicode="&#x11f;" glyph-name="gbreve" horiz-adv-x="627" d="M299 -191Q241 -191 199 -178T128 -144T83 -93T62 -30H147Q165 -121 298 -121Q375 -121 420 -83T466 40V116Q455 97 437 79T395 48T344 26T289 17Q238 17 194 35T119 87T69 165T51 265V272Q51
325 69 372T119 455T196 511T295 532Q361 532 402 505T466 439V523H549V35Q549 -22 530 -64T478 -135T400 -177T299 -191ZM298 86Q334 86 365 98T420 134T456 192T469 271V278Q469 366 425 414T303 463Q264 463 233 449T181 411T149 352T137 276V268Q137 225 150
192T184 135T235 99T298 86ZM298 619Q271 619 248 629T207 656T178 698T166 751H232Q237 722 252 705T298 687Q330 687 347 704T370 751H434Q432 722 421 698T392 657T349 629T298 619Z" />
<glyph unicode="&#x120;" glyph-name="Gdotaccent" horiz-adv-x="767" d="M407 -9Q324 -9 260 18T152 93T84 208T61 353V361Q61 439 86 506T157 622T266 698T407 726Q460 726 509 713T597 673T663 602T698 499H611Q596 584 542 620T409 657Q347 657 299 636T218
575T168 482T151 362V354Q151 288 167 234T216 141T296 82T407 61Q465 61 507 79T576 127T617 199T632 289H423V361H717V308Q717 230 695 171T631 72T533 12T407 -9ZM401 787Q378 787 362 803T346 842Q346 865 362 881T401 897Q424 897 440 881T456 842Q456 819
440 803T401 787Z" />
<glyph unicode="&#x121;" glyph-name="gdotaccent" horiz-adv-x="627" d="M299 -191Q241 -191 199 -178T128 -144T83 -93T62 -30H147Q165 -121 298 -121Q375 -121 420 -83T466 40V116Q455 97 437 79T395 48T344 26T289 17Q238 17 194 35T119 87T69 165T51 265V272Q51
325 69 372T119 455T196 511T295 532Q361 532 402 505T466 439V523H549V35Q549 -22 530 -64T478 -135T400 -177T299 -191ZM298 86Q334 86 365 98T420 134T456 192T469 271V278Q469 366 425 414T303 463Q264 463 233 449T181 411T149 352T137 276V268Q137 225 150
192T184 135T235 99T298 86ZM300 632Q277 632 261 648T245 687Q245 710 261 726T300 742Q323 742 339 726T355 687Q355 664 339 648T300 632Z" />
<glyph unicode="&#x122;" glyph-name="Gcommaaccent" horiz-adv-x="767" d="M407 -9Q324 -9 260 18T152 93T84 208T61 353V361Q61 439 86 506T157 622T266 698T407 726Q460 726 509 713T597 673T663 602T698 499H611Q596 584 542 620T409 657Q347 657 299 636T218
575T168 482T151 362V354Q151 288 167 234T216 141T296 82T407 61Q465 61 507 79T576 127T617 199T632 289H423V361H717V308Q717 230 695 171T631 72T533 12T407 -9ZM317 -194L375 -37L455 -61L368 -220L317 -194Z" />
<glyph unicode="&#x123;" glyph-name="gcommaaccent" horiz-adv-x="627" d="M299 -191Q241 -191 199 -178T128 -144T83 -93T62 -30H147Q165 -121 298 -121Q375 -121 420 -83T466 40V116Q455 97 437 79T395 48T344 26T289 17Q238 17 194 35T119 87T69 165T51 265V272Q51
325 69 372T119 455T196 511T295 532Q361 532 402 505T466 439V523H549V35Q549 -22 530 -64T478 -135T400 -177T299 -191ZM298 86Q334 86 365 98T420 134T456 192T469 271V278Q469 366 425 414T303 463Q264 463 233 449T181 411T149 352T137 276V268Q137 225 150
192T184 135T235 99T298 86ZM260 626L347 785L398 759L340 602L260 626Z" />
<glyph unicode="&#x124;" glyph-name="Hcircumflex" horiz-adv-x="730" d="M96 715H183V391H559V715H646V0H559V318H183V0H96V715ZM334 898H409L516 771H455L370 829L285 771H226L334 898Z" />
<glyph unicode="&#x125;" glyph-name="hcircumflex" horiz-adv-x="598" d="M90 773H173V440Q191 477 233 504T341 532Q381 532 415 521T473 484T511 418T525 321V0H442V327Q442 396 412 428T319 460Q290 460 264 451T217 424T185 379T173 317V0H90V773ZM282 948H357L464
821H403L318 879L233 821H174L282 948Z" />
<glyph unicode="&#x126;" glyph-name="Hbar" horiz-adv-x="730" d="M20 560H90V715H177V560H553V715H640V560H710V493H640V0H553V318H177V0H90V493H20V560ZM553 391V493H177V391H553Z" />
<glyph unicode="&#x127;" glyph-name="hbar" horiz-adv-x="598" d="M9 676H84V773H167V676H345V615H167V440Q185 477 227 504T335 532Q375 532 409 521T467 484T505 418T519 321V0H436V327Q436 396 406 428T313 460Q284 460 258 451T211 424T179 379T167 317V0H84V615H9V676Z"
/>
<glyph unicode="&#x128;" glyph-name="Itilde" horiz-adv-x="277" d="M101 715H188V0H101V715ZM457 774Q441 774 426 780T398 795T372 810T349 817Q335 817 324 805T309 772H249Q255 826 283 857T350 888Q366 888 380 882T408 867T434 852T457 845Q471 845 482
857T497 890H557Q551 836 523 805T457 774Z" />
<glyph unicode="&#x129;" glyph-name="itilde" horiz-adv-x="255" d="M92 523H175V0H92V523ZM445 619Q429 619 414 625T386 640T360 655T337 662Q323 662 312 650T297 617H237Q243 671 271 702T338 733Q354 733 368 727T396 712T422 697T445 690Q459 690 470 702T485
735H545Q539 681 511 650T445 619Z" />
<glyph unicode="&#x12a;" glyph-name="Imacron" horiz-adv-x="277" d="M101 715H188V0H101V715ZM268 850H534V786H268V850Z" />
<glyph unicode="&#x12b;" glyph-name="imacron" horiz-adv-x="255" d="M30 712H224V648H30V712ZM86 523H169V0H86V523Z" />
<glyph unicode="&#x12c;" glyph-name="Ibreve" horiz-adv-x="277" d="M101 715H188V0H101V715ZM401 767Q374 767 351 777T310 804T281 846T269 899H335Q340 870 355 853T401 835Q433 835 450 852T473 899H537Q535 870 524 846T495 805T452 777T401 767Z" />
<glyph unicode="&#x12d;" glyph-name="ibreve" horiz-adv-x="255" d="M92 523H175V0H92V523ZM389 619Q362 619 339 629T298 656T269 698T257 751H323Q328 722 343 705T389 687Q421 687 438 704T461 751H525Q523 722 512 698T483 657T440 629T389 619Z" />
<glyph unicode="&#x12e;" glyph-name="Iogonek" horiz-adv-x="277" d="M130 -182Q83 -182 55 -161T26 -102Q26 -72 46 -47T95 -4V715H182V4Q141 -19 123 -41T105 -86Q105 -122 143 -122Q156 -122 170 -120T195 -111V-170Q182 -175 167 -178T130 -182Z" />
<glyph unicode="&#x12f;" glyph-name="iogonek" horiz-adv-x="255" d="M120 -182Q73 -182 45 -161T16 -102Q16 -71 36 -46T86 -4V523H169V3Q131 -20 113 -41T95 -86Q95 -122 133 -122Q146 -122 160 -120T185 -111V-170Q172 -175 157 -178T120 -182ZM126 632Q103
632 87 648T71 687Q71 710 87 726T126 742Q149 742 165 726T181 687Q181 664 165 648T126 632Z" />
<glyph unicode="&#x130;" glyph-name="Idotaccent" horiz-adv-x="277" d="M101 715H188V0H101V715ZM401 787Q378 787 362 803T346 842Q346 865 362 881T401 897Q424 897 440 881T456 842Q456 819 440 803T401 787Z" />
<glyph unicode="&#x131;" glyph-name="dotlessi" horiz-adv-x="267" d="M92 523H175V0H92V523Z" />
<glyph unicode="&#x132;" glyph-name="IJ" horiz-adv-x="657" d="M101 715H188V0H101V715ZM381 -9Q340 -9 318 -4T281 10V82Q301 74 322 68T376 62Q430 62 461 94T492 198V715H579V194Q579 140 564 102T521 39T458 3T381 -9Z" />
<glyph unicode="&#x133;" glyph-name="ij" horiz-adv-x="255" d="M92 523H175V0H92V523ZM132 632Q109 632 93 648T77 687Q77 710 93 726T132 742Q155 742 171 726T187 687Q187 664 171 648T132 632ZM270 -121Q315 -117 331 -96T347 -40V523H430V-33Q430 -108 394
-148T270 -191V-121ZM387 632Q364 632 348 648T332 687Q332 710 348 726T387 742Q410 742 426 726T442 687Q442 664 426 648T387 632Z" />
<glyph unicode="&#x134;" glyph-name="Jcircumflex" horiz-adv-x="420" d="M144 -9Q103 -9 81 -4T44 10V82Q64 74 85 68T139 62Q193 62 224 94T255 198V715H342V194Q342 140 327 102T284 39T221 3T144 -9ZM259 898H334L441 771H380L295 829L210 771H151L259 898Z" />
<glyph unicode="&#x135;" glyph-name="jcircumflex" horiz-adv-x="255" d="M9 -121Q54 -117 70 -96T86 -40V523H169V-33Q169 -108 133 -148T9 -191V-121ZM352 757H427L534 613H473L388 688L303 613H244L352 757Z" />
<glyph unicode="&#x136;" glyph-name="Kcommaaccent" horiz-adv-x="616" d="M96 715H183V371L494 716H591L273 368L607 0H502L183 349V0H96V715ZM244 -194L302 -37L382 -61L295 -220L244 -194Z" />
<glyph unicode="&#x137;" glyph-name="kcommaaccent" horiz-adv-x="516" d="M90 773H173V282L390 523H487L263 280L506 0H405L173 271V0H90V773ZM192 -194L250 -37L330 -61L243 -220L192 -194Z" />
<glyph unicode="&#x139;" glyph-name="Lacute" horiz-adv-x="535" d="M96 715H183V71H510V0H96V715ZM417 898H521L423 771H361L417 898Z" />
<glyph unicode="&#x13a;" glyph-name="lacute" horiz-adv-x="256" d="M92 773H176V0H92V773ZM411 948H515L417 821H355L411 948Z" />
<glyph unicode="&#x13b;" glyph-name="Lcommaaccent" horiz-adv-x="535" d="M96 715H183V71H510V0H96V715ZM220 -194L278 -37L358 -61L271 -220L220 -194Z" />
<glyph unicode="&#x13c;" glyph-name="lcommaaccent" horiz-adv-x="256" d="M92 773H176V0H92V773ZM307 -194L365 -37L445 -61L358 -220L307 -194Z" />
<glyph unicode="&#x13d;" glyph-name="Lcaron" horiz-adv-x="535" d="M315 715H409L351 558H293L315 715ZM90 715H177V71H504V0H90V715Z" />
<glyph unicode="&#x13e;" glyph-name="lcaron" horiz-adv-x="256" d="M92 773H176V0H92V773ZM236 773H330L282 598H224L236 773Z" />
<glyph unicode="&#x13f;" glyph-name="Ldot" horiz-adv-x="535" d="M96 715H183V71H510V0H96V715ZM406 320Q380 320 361 338T342 384Q342 411 361 429T406 448Q432 448 451 430T470 384Q470 357 451 339T406 320Z" />
<glyph unicode="&#x140;" glyph-name="ldot" horiz-adv-x="328" d="M92 773H176V0H92V773ZM296 303Q270 303 251 321T232 367Q232 394 251 412T296 431Q322 431 341 413T360 367Q360 340 341 322T296 303Z" />
<glyph unicode="&#x141;" glyph-name="Lslash" horiz-adv-x="567" d="M48 319L116 344V715H203V376L402 449V381L203 308V71H530V0H116V276L48 251V319Z" />
<glyph unicode="&#x142;" glyph-name="lslash" horiz-adv-x="288" d="M26 381L102 424V773H186V472L266 518V448L186 402V0H102V354L26 311V381Z" />
<glyph unicode="&#x143;" glyph-name="Nacute" horiz-adv-x="724" d="M96 715H209L557 124V715H640V0H540L179 613V0H96V715ZM397 898H501L403 771H341L397 898Z" />
<glyph unicode="&#x144;" glyph-name="nacute" horiz-adv-x="598" d="M90 523H173V440Q191 477 233 504T341 532Q381 532 415 521T473 484T511 418T525 321V0H442V327Q442 396 412 428T319 460Q290 460 264 451T217 424T185 379T173 317V0H90V523ZM329 760H433L329
613H267L329 760Z" />
<glyph unicode="&#x145;" glyph-name="Ncommaaccent" horiz-adv-x="724" d="M96 715H209L557 124V715H640V0H540L179 613V0H96V715ZM272 -194L330 -37L410 -61L323 -220L272 -194Z" />
<glyph unicode="&#x146;" glyph-name="ncommaaccent" horiz-adv-x="598" d="M90 523H173V440Q191 477 233 504T341 532Q381 532 415 521T473 484T511 418T525 321V0H442V327Q442 396 412 428T319 460Q290 460 264 451T217 424T185 379T173 317V0H90V523ZM220 -194L278
-37L358 -61L271 -220L220 -194Z" />
<glyph unicode="&#x147;" glyph-name="Ncaron" horiz-adv-x="724" d="M96 715H209L557 124V715H640V0H540L179 613V0H96V715ZM233 898H294L379 840L464 898H523L415 771H340L233 898Z" />
<glyph unicode="&#x148;" glyph-name="ncaron" horiz-adv-x="598" d="M90 523H173V440Q191 477 233 504T341 532Q381 532 415 521T473 484T511 418T525 321V0H442V327Q442 396 412 428T319 460Q290 460 264 451T217 424T185 379T173 317V0H90V523ZM159 757H220L305
682L390 757H449L341 613H266L159 757Z" />
<glyph unicode="&#x149;" glyph-name="napostrophe" horiz-adv-x="598" d="M90 523H173V440Q191 477 233 504T341 532Q381 532 415 521T473 484T511 418T525 321V0H442V327Q442 396 412 428T319 460Q290 460 264 451T217 424T185 379T173 317V0H90V523ZM219 514L308
726L387 690L270 488L219 514Z" />
<glyph unicode="&#x14a;" glyph-name="Eng" horiz-adv-x="724" d="M436 -193Q395 -193 373 -188T336 -174V-102Q356 -110 377 -116T431 -122Q484 -122 515 -93T549 -1L173 613V0H90V715H203L551 147V715H634V10Q634 -44 619 -82T576 -145T513 -181T436 -193Z" />
<glyph unicode="&#x14b;" glyph-name="eng" horiz-adv-x="598" d="M359 -121Q404 -117 420 -96T436 -40V327Q436 396 406 428T313 460Q284 460 258 451T211 424T179 379T167 317V0H84V523H167V440Q185 477 227 504T335 532Q375 532 409 521T467 484T505 418T519
321V-33Q519 -108 483 -148T359 -191V-121Z" />
<glyph unicode="&#x14c;" glyph-name="Omacron" horiz-adv-x="811" d="M415 63Q475 63 522 84T603 144T654 237T672 356V364Q672 424 655 477T604 569T523 631T413 654Q351 654 302 633T220 572T169 480T151 362V354Q151 289 171 236T227 144T311 84T415 63ZM415
-9Q336 -9 271 19T159 97T87 212T61 353V361Q61 437 86 503T158 619T269 696T413 724Q492 724 556 696T666 619T737 504T762 363V355Q762 279 737 213T667 98T557 20T415 -9ZM278 850H544V786H278V850Z" />
<glyph unicode="&#x14d;" glyph-name="omacron" horiz-adv-x="604" d="M308 60Q347 60 379 74T433 114T467 176T479 257V264Q479 309 467 346T433 409T379 449T308 463Q269 463 237 449T183 409T149 347T137 265V257Q137 167 182 114T308 60ZM307 -9Q251 -9 204
11T123 66T70 151T51 257V265Q51 324 70 373T124 457T205 512T308 532Q363 532 410 513T492 458T545 374T565 266V258Q565 199 546 150T492 65T410 11T307 -9ZM177 712H439V648H177V712Z" />
<glyph unicode="&#x14e;" glyph-name="Obreve" horiz-adv-x="811" d="M415 63Q475 63 522 84T603 144T654 237T672 356V364Q672 424 655 477T604 569T523 631T413 654Q351 654 302 633T220 572T169 480T151 362V354Q151 289 171 236T227 144T311 84T415 63ZM415
-9Q336 -9 271 19T159 97T87 212T61 353V361Q61 437 86 503T158 619T269 696T413 724Q492 724 556 696T666 619T737 504T762 363V355Q762 279 737 213T667 98T557 20T415 -9ZM409 767Q382 767 359 777T318 804T289 846T277 899H343Q348 870 363 853T409 835Q441
835 458 852T481 899H545Q543 870 532 846T503 805T460 777T409 767Z" />
<glyph unicode="&#x14f;" glyph-name="obreve" horiz-adv-x="604" d="M308 60Q347 60 379 74T433 114T467 176T479 257V264Q479 309 467 346T433 409T379 449T308 463Q269 463 237 449T183 409T149 347T137 265V257Q137 167 182 114T308 60ZM307 -9Q251 -9 204
11T123 66T70 151T51 257V265Q51 324 70 373T124 457T205 512T308 532Q363 532 410 513T492 458T545 374T565 266V258Q565 199 546 150T492 65T410 11T307 -9ZM306 619Q279 619 256 629T215 656T186 698T174 751H240Q245 722 260 705T306 687Q338 687 355 704T378
751H442Q440 722 429 698T400 657T357 629T306 619Z" />
<glyph unicode="&#x150;" glyph-name="Ohungarumlaut" horiz-adv-x="811" d="M415 63Q475 63 522 84T603 144T654 237T672 356V364Q672 424 655 477T604 569T523 631T413 654Q351 654 302 633T220 572T169 480T151 362V354Q151 289 171 236T227 144T311 84T415
63ZM415 -9Q336 -9 271 19T159 97T87 212T61 353V361Q61 437 86 503T158 619T269 696T413 724Q492 724 556 696T666 619T737 504T762 363V355Q762 279 737 213T667 98T557 20T415 -9ZM336 898H431L359 771H299L336 898ZM490 898H585L513 771H453L490 898Z" />
<glyph unicode="&#x151;" glyph-name="ohungarumlaut" horiz-adv-x="604" d="M308 60Q347 60 379 74T433 114T467 176T479 257V264Q479 309 467 346T433 409T379 449T308 463Q269 463 237 449T183 409T149 347T137 265V257Q137 167 182 114T308 60ZM307 -9Q251
-9 204 11T123 66T70 151T51 257V265Q51 324 70 373T124 457T205 512T308 532Q363 532 410 513T492 458T545 374T565 266V258Q565 199 546 150T492 65T410 11T307 -9ZM236 760H331L256 613H196L236 760ZM390 760H485L410 613H350L390 760Z" />
<glyph unicode="&#x152;" glyph-name="OE" horiz-adv-x="967" d="M61 360Q61 434 82 499T149 612T262 687T425 715H902V644H588V401H838V330H588V71H920V0H423Q331 0 263 27T150 101T83 212T61 351V360ZM427 644Q358 644 306 624T220 567T168 478T151 359V351Q151
289 166 238T215 149T301 91T428 70H501V644H427Z" />
<glyph unicode="&#x153;" glyph-name="oe" horiz-adv-x="1007" d="M307 -9Q251 -9 204 11T123 66T70 151T51 257V265Q51 324 70 373T124 457T205 512T308 532Q382 532 436 499T520 406Q548 465 599 498T723 532Q768 532 810 518T886 472T938 392T958 272V245H564Q567
155 609 108T732 60Q855 60 871 151H954Q940 72 880 32T731 -9Q656 -9 603 23T520 116Q490 57 436 24T307 -9ZM308 60Q347 60 379 74T433 114T467 176T479 257V264Q479 309 467 346T433 409T379 449T308 463Q269 463 237 449T183 409T149 347T137 265V257Q137 167
182 114T308 60ZM873 312Q867 393 828 428T723 463Q659 463 619 423T567 312H873Z" />
<glyph unicode="&#x154;" glyph-name="Racute" horiz-adv-x="628" d="M96 715H311Q362 715 407 704T487 669T541 608T561 516V512Q561 468 547 435T509 378T453 339T384 317L603 0H506L293 311H183V0H96V715ZM317 380Q394 380 434 413T474 512V516Q474 552 463
577T432 617T383 638T317 645H183V380H317ZM335 898H439L341 771H279L335 898Z" />
<glyph unicode="&#x155;" glyph-name="racute" horiz-adv-x="376" d="M90 523H173V429Q185 451 200 469T236 501T283 523T345 532V454Q306 452 274 444T220 417T185 367T173 287V0H90V523ZM236 760H340L236 613H174L236 760Z" />
<glyph unicode="&#x156;" glyph-name="Rcommaaccent" horiz-adv-x="628" d="M96 715H311Q362 715 407 704T487 669T541 608T561 516V512Q561 468 547 435T509 378T453 339T384 317L603 0H506L293 311H183V0H96V715ZM317 380Q394 380 434 413T474 512V516Q474 552
463 577T432 617T383 638T317 645H183V380H317ZM232 -194L290 -37L370 -61L283 -220L232 -194Z" />
<glyph unicode="&#x157;" glyph-name="rcommaaccent" horiz-adv-x="376" d="M90 523H173V429Q185 451 200 469T236 501T283 523T345 532V454Q306 452 274 444T220 417T185 367T173 287V0H90V523ZM302 -194L360 -37L440 -61L353 -220L302 -194Z" />
<glyph unicode="&#x158;" glyph-name="Rcaron" horiz-adv-x="628" d="M96 715H311Q362 715 407 704T487 669T541 608T561 516V512Q561 468 547 435T509 378T453 339T384 317L603 0H506L293 311H183V0H96V715ZM317 380Q394 380 434 413T474 512V516Q474 552 463
577T432 617T383 638T317 645H183V380H317ZM171 898H232L317 840L402 898H461L353 771H278L171 898Z" />
<glyph unicode="&#x159;" glyph-name="rcaron" horiz-adv-x="376" d="M90 523H173V429Q185 451 200 469T236 501T283 523T345 532V454Q306 452 274 444T220 417T185 367T173 287V0H90V523ZM66 757H127L212 682L297 757H356L248 613H173L66 757Z" />
<glyph unicode="&#x15a;" glyph-name="Sacute" horiz-adv-x="627" d="M327 -9Q255 -9 206 9T124 59T76 131T54 218H138Q142 186 152 158T183 108T238 74T327 61Q361 61 391 70T443 98T477 141T490 196Q490 226 482 248T455 287T402 314T317 333Q261 342 217 356T141
392T94 448T78 530Q78 571 95 606T142 668T215 709T308 724Q416 724 479 674T554 527H476Q463 595 423 624T308 654Q234 654 197 622T159 538Q159 512 165 492T190 456T242 430T331 410Q391 401 436 386T512 347T558 288T574 202Q574 157 556 119T504 52T426 7T327
-9ZM327 898H431L333 771H271L327 898Z" />
<glyph unicode="&#x15b;" glyph-name="sacute" horiz-adv-x="480" d="M252 -9Q158 -9 105 35T47 161H128Q133 114 160 87T251 60Q311 60 338 80T365 143Q365 184 335 202T243 231Q192 240 157 252T101 283T71 326T61 385Q61 421 77 448T118 494T175 522T238 532Q273
532 305 525T362 499T405 452T427 381H347Q338 424 313 443T237 463Q192 463 165 443T138 388Q138 370 143 358T163 336T200 319T260 305Q300 297 334 288T392 262T430 219T444 150Q444 78 396 35T252 -9ZM269 760H373L269 613H207L269 760Z" />
<glyph unicode="&#x15c;" glyph-name="Scircumflex" horiz-adv-x="627" d="M327 -9Q255 -9 206 9T124 59T76 131T54 218H138Q142 186 152 158T183 108T238 74T327 61Q361 61 391 70T443 98T477 141T490 196Q490 226 482 248T455 287T402 314T317 333Q261 342 217
356T141 392T94 448T78 530Q78 571 95 606T142 668T215 709T308 724Q416 724 479 674T554 527H476Q463 595 423 624T308 654Q234 654 197 622T159 538Q159 512 165 492T190 456T242 430T331 410Q391 401 436 386T512 347T558 288T574 202Q574 157 556 119T504 52T426
7T327 -9ZM271 898H346L453 771H392L307 829L222 771H163L271 898Z" />
<glyph unicode="&#x15d;" glyph-name="scircumflex" horiz-adv-x="480" d="M252 -9Q158 -9 105 35T47 161H128Q133 114 160 87T251 60Q311 60 338 80T365 143Q365 184 335 202T243 231Q192 240 157 252T101 283T71 326T61 385Q61 421 77 448T118 494T175 522T238
532Q273 532 305 525T362 499T405 452T427 381H347Q338 424 313 443T237 463Q192 463 165 443T138 388Q138 370 143 358T163 336T200 319T260 305Q300 297 334 288T392 262T430 219T444 150Q444 78 396 35T252 -9ZM207 757H282L389 613H328L243 688L158 613H99L207
757Z" />
<glyph unicode="&#x15e;" glyph-name="Scedilla" horiz-adv-x="627" d="M290 -214Q246 -214 220 -191T190 -130H244Q247 -144 257 -155T287 -166Q306 -166 316 -156T327 -130Q327 -114 317 -105T291 -96Q281 -96 274 -99T263 -104L231 -76L269 -6Q212 0 172 20T106
71T66 138T48 218H132Q136 186 146 158T177 108T232 74T321 61Q355 61 385 70T437 98T471 141T484 196Q484 226 476 248T449 287T396 314T311 333Q255 342 211 356T135 392T88 448T72 530Q72 571 89 606T136 668T209 709T302 724Q410 724 473 674T548 527H470Q457
595 417 624T302 654Q228 654 191 622T153 538Q153 512 159 492T184 456T236 430T325 410Q385 401 430 386T506 347T552 288T568 202Q568 157 550 119T498 52T420 7T321 -9L297 -53Q314 -51 331 -54T361 -68T383 -94T391 -134Q391 -154 383 -169T361 -194T329 -209T290
-214Z" />
<glyph unicode="&#x15f;" glyph-name="scedilla" horiz-adv-x="480" d="M227 -214Q183 -214 157 -191T127 -130H181Q184 -144 194 -155T224 -166Q243 -166 253 -156T264 -130Q264 -114 254 -105T228 -96Q218 -96 211 -99T200 -104L168 -76L206 -6Q130 2 87 45T41
161H122Q127 114 154 87T245 60Q305 60 332 80T359 143Q359 184 329 202T237 231Q186 240 151 252T95 283T65 326T55 385Q55 421 71 448T112 494T169 522T232 532Q267 532 299 525T356 499T399 452T421 381H341Q332 424 307 443T231 463Q186 463 159 443T132 388Q132
370 137 358T157 336T194 319T254 305Q294 297 328 288T386 262T424 219T438 150Q438 81 393 38T258 -9L234 -53Q251 -51 268 -54T298 -68T320 -94T328 -134Q328 -154 320 -169T298 -194T266 -209T227 -214Z" />
<glyph unicode="&#x160;" glyph-name="Scaron" horiz-adv-x="639" d="M327 -9Q255 -9 206 9T124 59T76 131T54 218H138Q142 186 152 158T183 108T238 74T327 61Q361 61 391 70T443 98T477 141T490 196Q490 226 482 248T455 287T402 314T317 333Q261 342 217 356T141
392T94 448T78 530Q78 571 95 606T142 668T215 709T308 724Q416 724 479 674T554 527H476Q463 595 423 624T308 654Q234 654 197 622T159 538Q159 512 165 492T190 456T242 430T331 410Q391 401 436 386T512 347T558 288T574 202Q574 157 556 119T504 52T426 7T327
-9ZM163 898H224L309 840L394 898H453L345 771H270L163 898Z" />
<glyph unicode="&#x161;" glyph-name="scaron" horiz-adv-x="492" d="M252 -9Q158 -9 105 35T47 161H128Q133 114 160 87T251 60Q311 60 338 80T365 143Q365 184 335 202T243 231Q192 240 157 252T101 283T71 326T61 385Q61 421 77 448T118 494T175 522T238 532Q273
532 305 525T362 499T405 452T427 381H347Q338 424 313 443T237 463Q192 463 165 443T138 388Q138 370 143 358T163 336T200 319T260 305Q300 297 334 288T392 262T430 219T444 150Q444 78 396 35T252 -9ZM99 757H160L245 682L330 757H389L281 613H206L99 757Z"
/>
<glyph unicode="&#x162;" glyph-name="Tcommaaccent" horiz-adv-x="561" d="M243 644H35V715H538V644H330V0H243V644ZM202 -194L260 -37L340 -61L253 -220L202 -194Z" />
<glyph unicode="&#x163;" glyph-name="tcommaaccent" horiz-adv-x="355" d="M249 -7Q177 -7 143 31T108 131V453H33V523H108V642H191V523H313V453H191V139Q191 63 256 63Q276 63 291 66T320 74V4Q307 -1 291 -4T249 -7ZM370 -194L428 -37L508 -61L421 -220L370 -194Z" />
<glyph unicode="&#x164;" glyph-name="Tcaron" horiz-adv-x="561" d="M243 644H35V715H538V644H330V0H243V644ZM141 898H202L287 840L372 898H431L323 771H248L141 898Z" />
<glyph unicode="&#x165;" glyph-name="tcaron" horiz-adv-x="355" d="M249 -7Q177 -7 143 31T108 131V453H33V523H108V642H191V523H313V453H191V139Q191 63 256 63Q276 63 291 66T320 74V4Q307 -1 291 -4T249 -7ZM275 773H369L321 598H263L275 773Z" />
<glyph unicode="&#x166;" glyph-name="Tbar" horiz-adv-x="561" d="M92 404H237V644H29V715H532V644H324V404H469V338H324V0H237V338H92V404Z" />
<glyph unicode="&#x167;" glyph-name="tbar" horiz-adv-x="355" d="M27 339H102V453H27V523H102V642H185V523H307V453H185V339H307V280H185V139Q185 63 250 63Q270 63 285 66T314 74V4Q301 -1 285 -4T243 -7Q171 -7 137 31T102 131V280H27V339Z" />
<glyph unicode="&#x168;" glyph-name="Utilde" horiz-adv-x="696" d="M347 -9Q223 -9 157 60T90 261V715H177V271Q177 215 187 176T218 111T271 75T349 63Q392 63 425 73T482 108T518 175T531 284V715H618V272Q618 141 552 66T347 -9ZM408 774Q392 774 377 780T349
795T323 810T300 817Q286 817 275 805T260 772H200Q206 826 234 857T301 888Q317 888 331 882T359 867T385 852T408 845Q422 845 433 857T448 890H508Q502 836 474 805T408 774Z" />
<glyph unicode="&#x169;" glyph-name="utilde" horiz-adv-x="594" d="M267 -9Q228 -9 195 2T137 37T99 100T85 192V523H168V196Q168 127 197 95T289 63Q317 63 343 72T389 99T421 144T433 206V523H516V0H433V83Q415 46 373 19T267 -9ZM357 619Q341 619 326 625T298
640T272 655T249 662Q235 662 224 650T209 617H149Q155 671 183 702T250 733Q266 733 280 727T308 712T334 697T357 690Q371 690 382 702T397 735H457Q451 681 423 650T357 619Z" />
<glyph unicode="&#x16a;" glyph-name="Umacron" horiz-adv-x="696" d="M347 -9Q223 -9 157 60T90 261V715H177V271Q177 215 187 176T218 111T271 75T349 63Q392 63 425 73T482 108T518 175T531 284V715H618V272Q618 141 552 66T347 -9ZM221 850H487V786H221V850Z" />
<glyph unicode="&#x16b;" glyph-name="umacron" horiz-adv-x="594" d="M267 -9Q228 -9 195 2T137 37T99 100T85 192V523H168V196Q168 127 197 95T289 63Q317 63 343 72T389 99T421 144T433 206V523H516V0H433V83Q415 46 373 19T267 -9ZM172 712H434V648H172V712Z" />
<glyph unicode="&#x16c;" glyph-name="Ubreve" horiz-adv-x="696" d="M347 -9Q223 -9 157 60T90 261V715H177V271Q177 215 187 176T218 111T271 75T349 63Q392 63 425 73T482 108T518 175T531 284V715H618V272Q618 141 552 66T347 -9ZM352 767Q325 767 302 777T261
804T232 846T220 899H286Q291 870 306 853T352 835Q384 835 401 852T424 899H488Q486 870 475 846T446 805T403 777T352 767Z" />
<glyph unicode="&#x16d;" glyph-name="ubreve" horiz-adv-x="594" d="M267 -9Q228 -9 195 2T137 37T99 100T85 192V523H168V196Q168 127 197 95T289 63Q317 63 343 72T389 99T421 144T433 206V523H516V0H433V83Q415 46 373 19T267 -9ZM301 619Q274 619 251 629T210
656T181 698T169 751H235Q240 722 255 705T301 687Q333 687 350 704T373 751H437Q435 722 424 698T395 657T352 629T301 619Z" />
<glyph unicode="&#x16e;" glyph-name="Uring" horiz-adv-x="696" d="M347 -9Q223 -9 157 60T90 261V715H177V271Q177 215 187 176T218 111T271 75T349 63Q392 63 425 73T482 108T518 175T531 284V715H618V272Q618 141 552 66T347 -9ZM354 786Q377 786 392 802T407
844Q407 869 392 885T354 902Q331 902 316 886T301 844Q301 819 316 803T354 786ZM354 740Q332 740 313 748T279 770T256 804T247 844Q247 865 255 884T278 917T312 940T354 948Q376 948 395 940T429 918T452 884T461 844Q461 823 453 804T430 771T396 748T354
740Z" />
<glyph unicode="&#x16f;" glyph-name="uring" horiz-adv-x="594" d="M267 -9Q228 -9 195 2T137 37T99 100T85 192V523H168V196Q168 127 197 95T289 63Q317 63 343 72T389 99T421 144T433 206V523H516V0H433V83Q415 46 373 19T267 -9ZM300 871Q323 871 338 887T353
929Q353 954 338 970T300 987Q277 987 262 971T247 929Q247 904 262 888T300 871ZM300 825Q278 825 259 833T225 855T202 889T193 929Q193 950 201 969T224 1002T258 1025T300 1033Q322 1033 341 1025T375 1003T398 969T407 929Q407 908 399 889T376 856T342 833T300
825Z" />
<glyph unicode="&#x170;" glyph-name="Uhungarumlaut" horiz-adv-x="696" d="M347 -9Q223 -9 157 60T90 261V715H177V271Q177 215 187 176T218 111T271 75T349 63Q392 63 425 73T482 108T518 175T531 284V715H618V272Q618 141 552 66T347 -9ZM279 898H374L302
771H242L279 898ZM433 898H528L456 771H396L433 898Z" />
<glyph unicode="&#x171;" glyph-name="uhungarumlaut" horiz-adv-x="594" d="M267 -9Q228 -9 195 2T137 37T99 100T85 192V523H168V196Q168 127 197 95T289 63Q317 63 343 72T389 99T421 144T433 206V523H516V0H433V83Q415 46 373 19T267 -9ZM231 760H326L251
613H191L231 760ZM385 760H480L405 613H345L385 760Z" />
<glyph unicode="&#x172;" glyph-name="Uogonek" horiz-adv-x="696" d="M384 -182Q337 -182 309 -161T280 -102Q280 -73 298 -50T342 -9H341Q217 -9 151 60T84 261V715H171V271Q171 215 181 176T212 111T265 75T343 63Q386 63 419 73T476 108T512 175T525 284V715H612V272Q612
176 578 112T479 18Q453 6 432 -5T394 -28T368 -54T359 -86Q359 -122 397 -122Q410 -122 424 -120T449 -111V-170Q436 -175 421 -178T384 -182Z" />
<glyph unicode="&#x173;" glyph-name="uogonek" horiz-adv-x="594" d="M459 -182Q412 -182 384 -161T355 -102Q355 -71 376 -45T427 -3V83Q409 46 367 19T261 -9Q222 -9 189 2T131 37T93 100T79 192V523H162V196Q162 127 191 95T283 63Q311 63 337 72T383 99T415
144T427 206V523H510V5Q469 -21 452 -42T434 -86Q434 -122 472 -122Q485 -122 499 -120T524 -111V-170Q511 -175 496 -178T459 -182Z" />
<glyph unicode="&#x174;" glyph-name="Wcircumflex" horiz-adv-x="928" d="M40 715H129L274 138L442 715H504L672 136L819 715H900L714 0H634L472 565L305 0H226L40 715ZM433 898H508L615 771H554L469 829L384 771H325L433 898Z" />
<glyph unicode="&#x175;" glyph-name="wcircumflex" horiz-adv-x="794" d="M34 523H124L246 102L373 523H445L564 102L687 523H772L609 0H517L408 392L286 0H195L34 523ZM366 757H441L548 613H487L402 688L317 613H258L366 757Z" />
<glyph unicode="&#x176;" glyph-name="Ycircumflex" horiz-adv-x="598" d="M268 312L29 715H127L314 383L494 715H581L355 311V0H268V312ZM268 898H343L450 771H389L304 829L219 771H160L268 898Z" />
<glyph unicode="&#x177;" glyph-name="ycircumflex" horiz-adv-x="529" d="M236 54L31 523H120L280 148L425 523H510L221 -182H137L236 54ZM233 757H308L415 613H354L269 688L184 613H125L233 757Z" />
<glyph unicode="&#x178;" glyph-name="Ydieresis" horiz-adv-x="610" d="M268 312L29 715H127L314 383L494 715H581L355 311V0H268V312ZM203 789Q181 789 166 804T150 842Q150 864 165 879T203 895Q225 895 240 880T256 842Q256 820 241 805T203 789ZM406 789Q384
789 369 804T353 842Q353 864 368 879T406 895Q428 895 443 880T459 842Q459 820 444 805T406 789Z" />
<glyph unicode="&#x179;" glyph-name="Zacute" horiz-adv-x="595" d="M34 14L439 644H70V715H559V702L165 74H553V0H34V14ZM320 898H424L326 771H264L320 898Z" />
<glyph unicode="&#x17a;" glyph-name="zacute" horiz-adv-x="483" d="M27 12L336 453H57V523H464V508L162 73H460V0H27V12ZM279 760H383L279 613H217L279 760Z" />
<glyph unicode="&#x17b;" glyph-name="Zdotaccent" horiz-adv-x="595" d="M34 14L439 644H70V715H559V702L165 74H553V0H34V14ZM301 787Q278 787 262 803T246 842Q246 865 262 881T301 897Q324 897 340 881T356 842Q356 819 340 803T301 787Z" />
<glyph unicode="&#x17c;" glyph-name="zdotaccent" horiz-adv-x="483" d="M27 12L336 453H57V523H464V508L162 73H460V0H27V12ZM254 632Q231 632 215 648T199 687Q199 710 215 726T254 742Q277 742 293 726T309 687Q309 664 293 648T254 632Z" />
<glyph unicode="&#x17d;" glyph-name="Zcaron" horiz-adv-x="607" d="M34 14L439 644H70V715H559V702L165 74H553V0H34V14ZM156 898H217L302 840L387 898H446L338 771H263L156 898Z" />
<glyph unicode="&#x17e;" glyph-name="zcaron" horiz-adv-x="495" d="M27 12L336 453H57V523H464V508L162 73H460V0H27V12ZM109 757H170L255 682L340 757H399L291 613H216L109 757Z" />
<glyph unicode="&#x192;" glyph-name="florin" horiz-adv-x="409" d="M35 413H132L155 565Q167 643 209 683T324 724Q346 724 362 721T392 713V643Q381 648 365 651T326 655Q284 655 264 629T237 561L214 413H346V345H204L124 -182H41L121 345H35V413Z" />
<glyph unicode="&#x1fa;" glyph-name="Aringacute" horiz-adv-x="674" d="M288 715H402L644 0H558L488 206H193L124 0H42L288 715ZM217 275H465L341 643L217 275ZM350 796Q373 796 388 812T403 854Q403 879 388 895T350 912Q327 912 312 896T297 854Q297 829 312
813T350 796ZM350 750Q328 750 309 758T275 780T252 814T243 854Q243 875 251 894T274 927T308 950T350 958Q372 958 391 950T425 928T448 894T457 854Q457 833 449 814T426 781T392 758T350 750ZM373 1113H477L379 986H317L373 1113Z" />
<glyph unicode="&#x1fb;" glyph-name="aringacute" horiz-adv-x="540" d="M221 -9Q185 -9 153 0T98 28T61 76T47 145Q47 190 69 221T127 271T211 298T309 307H384V345Q384 408 358 435T272 463Q164 463 152 369H69Q73 414 91 445T138 495T202 523T276 532Q313
532 348 524T409 494T451 436T467 345V0H384V66Q355 29 317 10T221 -9ZM229 57Q262 57 290 65T339 90T372 129T384 183V248H312Q273 248 240 243T182 225T144 194T130 145Q130 104 152 81T229 57ZM279 881Q302 881 317 897T332 939Q332 964 317 980T279 997Q256
997 241 981T226 939Q226 914 241 898T279 881ZM279 835Q257 835 238 843T204 865T181 899T172 939Q172 960 180 979T203 1012T237 1035T279 1043Q301 1043 320 1035T354 1013T377 979T386 939Q386 918 378 899T355 866T321 843T279 835ZM309 956H413L315 829H253L309
956Z" />
<glyph unicode="&#x1fc;" glyph-name="AEacute" horiz-adv-x="950" d="M405 715H897V644H567V401H833V330H567V71H915V0H480V207H228L123 0H35L405 715ZM262 275H480V644H449L262 275ZM635 898H739L641 771H579L635 898Z" />
<glyph unicode="&#x1fd;" glyph-name="aeacute" horiz-adv-x="880" d="M622 -9Q556 -9 506 19T425 99Q389 42 341 17T221 -9Q185 -9 153 0T98 28T61 76T47 145Q47 191 68 222T126 273T209 301T306 310H384V344Q384 407 357 435T272 463Q164 463 152 369H69Q73
414 91 445T138 495T202 523T276 532Q328 532 372 513T440 443Q470 485 514 508T616 532Q659 532 700 518T773 473T824 393T843 272V247H464Q467 157 506 109T623 60Q740 60 756 151H839Q825 72 766 32T622 -9ZM229 57Q262 57 290 65T339 90T372 129T384 183V247H309Q270
247 237 242T180 225T143 194T130 145Q130 104 152 81T229 57ZM758 310Q752 393 716 428T616 463Q555 463 516 422T467 310H758ZM475 760H579L475 613H413L475 760Z" />
<glyph unicode="&#x1fe;" glyph-name="Oslashacute" horiz-adv-x="811" d="M41 12L139 119Q101 167 81 226T61 353V361Q61 437 86 503T158 619T269 696T413 724Q476 724 530 706T627 654L708 742L753 697L674 610Q716 562 739 499T762 363V355Q762 279 737 213T667
98T557 20T415 -9Q346 -9 287 13T183 73L86 -33L41 12ZM415 63Q475 63 522 84T603 144T654 237T672 356V364Q672 476 620 552L236 131Q271 97 316 80T415 63ZM151 354Q151 302 162 259T195 181L577 599Q545 625 505 639T413 654Q351 654 302 633T220 572T169 480T151
362V354ZM431 898H535L437 771H375L431 898Z" />
<glyph unicode="&#x1ff;" glyph-name="oslashacute" horiz-adv-x="604" d="M29 1L106 86Q80 120 66 163T51 257V265Q51 324 70 373T124 457T205 512T308 532Q353 532 392 519T464 482L532 556L576 518L506 441Q534 406 549 362T565 266V258Q565 199 546 150T492
65T410 11T307 -9Q259 -9 219 5T147 45L73 -37L29 1ZM308 60Q347 60 379 74T433 114T467 176T479 257V264Q479 299 472 328T452 381L196 100Q241 60 308 60ZM137 257Q137 192 161 146L414 426Q371 463 308 463Q269 463 237 449T183 409T149 347T137 265V257ZM332
760H436L332 613H270L332 760Z" />
<glyph unicode="&#x218;" glyph-name="Scommaaccent" horiz-adv-x="627" d="M327 -9Q255 -9 206 9T124 59T76 131T54 218H138Q142 186 152 158T183 108T238 74T327 61Q361 61 391 70T443 98T477 141T490 196Q490 226 482 248T455 287T402 314T317 333Q261 342
217 356T141 392T94 448T78 530Q78 571 95 606T142 668T215 709T308 724Q416 724 479 674T554 527H476Q463 595 423 624T308 654Q234 654 197 622T159 538Q159 512 165 492T190 456T242 430T331 410Q391 401 436 386T512 347T558 288T574 202Q574 157 556 119T504
52T426 7T327 -9ZM224 -194L282 -37L362 -61L275 -220L224 -194Z" />
<glyph unicode="&#x219;" glyph-name="scommaaccent" horiz-adv-x="480" d="M252 -9Q158 -9 105 35T47 161H128Q133 114 160 87T251 60Q311 60 338 80T365 143Q365 184 335 202T243 231Q192 240 157 252T101 283T71 326T61 385Q61 421 77 448T118 494T175 522T238
532Q273 532 305 525T362 499T405 452T427 381H347Q338 424 313 443T237 463Q192 463 165 443T138 388Q138 370 143 358T163 336T200 319T260 305Q300 297 334 288T392 262T430 219T444 150Q444 78 396 35T252 -9ZM160 -194L218 -37L298 -61L211 -220L160 -194Z"
/>
<glyph unicode="&#x21a;" glyph-name="uni021A" horiz-adv-x="561" d="M243 644H35V715H538V644H330V0H243V644ZM202 -194L260 -37L340 -61L253 -220L202 -194Z" />
<glyph unicode="&#x21b;" glyph-name="uni021B" horiz-adv-x="355" d="M249 -7Q177 -7 143 31T108 131V453H33V523H108V642H191V523H313V453H191V139Q191 63 256 63Q276 63 291 66T320 74V4Q307 -1 291 -4T249 -7ZM370 -194L428 -37L508 -61L421 -220L370 -194Z" />
<glyph unicode="&#x237;" glyph-name="uni0237" horiz-adv-x="255" d="M9 -121Q54 -117 70 -96T86 -40V523H169V-33Q169 -108 133 -148T9 -191V-121Z" />
<glyph unicode="&#x2c6;" glyph-name="circumflex" horiz-adv-x="412" d="M169 757H244L351 613H290L205 688L120 613H61L169 757Z" />
<glyph unicode="&#x2c7;" glyph-name="caron" horiz-adv-x="412" d="M61 757H122L207 682L292 757H351L243 613H168L61 757Z" />
<glyph unicode="&#x2d8;" glyph-name="breve" horiz-adv-x="412" d="M204 619Q177 619 154 629T113 656T84 698T72 751H138Q143 722 158 705T204 687Q236 687 253 704T276 751H340Q338 722 327 698T298 657T255 629T204 619Z" />
<glyph unicode="&#x2d9;" glyph-name="dotaccent" horiz-adv-x="412" d="M206 632Q183 632 167 648T151 687Q151 710 167 726T206 742Q229 742 245 726T261 687Q261 664 245 648T206 632Z" />
<glyph unicode="&#x2da;" glyph-name="ring" horiz-adv-x="412" d="M206 644Q229 644 244 660T259 702Q259 727 244 743T206 760Q183 760 168 744T153 702Q153 677 168 661T206 644ZM206 598Q184 598 165 606T131 628T108 662T99 702Q99 723 107 742T130 775T164
798T206 806Q228 806 247 798T281 776T304 742T313 702Q313 681 305 662T282 629T248 606T206 598Z" />
<glyph unicode="&#x2db;" glyph-name="ogonek" horiz-adv-x="412" d="M229 -182Q182 -182 154 -161T125 -102Q125 -70 148 -43T203 0H272Q238 -23 221 -43T204 -86Q204 -122 242 -122Q255 -122 269 -120T294 -111V-170Q281 -175 266 -178T229 -182Z" />
<glyph unicode="&#x2dc;" glyph-name="tilde" horiz-adv-x="412" d="M260 619Q244 619 229 625T201 640T175 655T152 662Q138 662 127 650T112 617H52Q58 671 86 702T153 733Q169 733 183 727T211 712T237 697T260 690Q274 690 285 702T300 735H360Q354 681 326
650T260 619Z" />
<glyph unicode="&#x2dd;" glyph-name="hungarumlaut" horiz-adv-x="412" d="M142 760H237L162 613H102L142 760ZM296 760H391L316 613H256L296 760Z" />
</font>
</defs>
</svg>
