<?xml version="1.0" standalone="no"?> <!DOCTYPE svg PUBLIC "-//W3C//DTD SVG 1.0//EN" "http://www.w3.org/TR/2001/REC-SVG-20010904/DTD/svg10.dtd" > <svg xmlns="http://www.w3.org/2000/svg" width="100%" height="100%">
<defs >
<font id="Graphik-Light" horiz-adv-x="512" ><font-face
    font-family=""
    units-per-em="1000"
    panose-1="2 11 4 3 3 2 2 6 2 3"
    ascent="818"
    descent="-182"
    alphabetic="0" />
<missing-glyph horiz-adv-x="504" />
<glyph unicode=" " glyph-name="space" horiz-adv-x="251" />
<glyph unicode="!" glyph-name="exclam" horiz-adv-x="275" d="M136 -5Q118 -5 106 7T93 37Q93 55 105 67T136 80Q153 80 165 68T178 37Q178 20 166 8T136 -5ZM107 715H166L158 179H116L107 715Z" />
<glyph unicode="&quot;" glyph-name="quotedbl" horiz-adv-x="309" d="M58 715H116L107 506H67L58 715ZM189 715H247L238 506H198L189 715Z" />
<glyph unicode="#" glyph-name="numbersign" horiz-adv-x="496" d="M286 295H166L138 99H93L121 295H31V340H128L151 497H59V542H157L183 715H228L202 542H322L348 715H393L367 542H460V497H361L338 340H432V295H331L303 99H258L286 295ZM173 340H293L316 497H196L173
340Z" />
<glyph unicode="$" glyph-name="dollar" horiz-adv-x="610" d="M283 -7Q222 -4 179 14T108 60T64 126T43 205H97Q101 173 112 144T145 93T199 56T283 38V352Q176 370 123 412T70 536Q70 576 85 609T129 667T196 706T283 723V813H323V722Q412 716 465 670T529 543H478Q466
604 429 638T323 677V394Q380 385 422 371T493 334T535 278T549 195Q549 154 533 118T488 54T416 11T323 -8V-135H283V-7ZM495 191Q495 227 486 252T457 295T404 325T323 345V37Q362 39 394 51T448 84T483 131T495 191ZM122 540Q122 513 129 491T155 452T204 422T283
400V677Q208 674 165 638T122 540Z" />
<glyph unicode="%" glyph-name="percent" horiz-adv-x="770" d="M197 440Q243 440 273 471T304 559Q304 614 274 646T197 678Q152 678 121 647T90 557Q90 500 121 470T197 440ZM197 398Q167 398 139 409T88 441T53 491T40 557Q40 593 53 623T87 674T137 708T197
720Q229 720 257 708T307 675T340 624T353 559Q353 522 340 493T306 442T256 410T197 398ZM585 715H635L180 0H129L585 715ZM568 36Q614 36 644 67T675 155Q675 210 645 241T568 273Q523 273 492 242T461 153Q461 96 492 66T568 36ZM568 -7Q538 -7 510 4T460 37T425
87T412 153Q412 189 424 219T458 270T508 304T568 316Q600 316 628 304T678 271T712 220T725 155Q725 118 712 88T677 37T627 5T568 -7Z" />
<glyph unicode="&amp;" glyph-name="ampersand" horiz-adv-x="667" d="M504 146L629 0H563L472 106Q455 84 434 64T388 28T331 3T262 -7Q214 -7 175 7T107 47T64 108T49 186Q49 228 63 261T101 320T156 366T222 403Q187 447 168 484T149 563Q149 599 162 628T197
677T249 708T311 719Q344 719 371 708T417 678T448 632T459 575Q459 543 447 516T413 467T362 426T297 392L474 184L570 362H621L504 146ZM264 38Q324 38 367 67T443 141L248 372Q219 358 193 341T147 302T115 253T103 191Q103 122 145 80T264 38ZM201 563Q201
528 220 496T273 422Q336 451 372 486T408 576Q408 620 382 648T309 676Q263 676 232 647T201 563Z" />
<glyph unicode="&apos;" glyph-name="quotesingle" horiz-adv-x="178" d="M58 715H116L107 506H67L58 715Z" />
<glyph unicode="(" glyph-name="parenleft" horiz-adv-x="303" d="M220 -148Q186 -108 156 -59T104 47T68 171T55 312Q55 387 68 453T103 576T156 683T220 773H274Q240 731 211 683T159 578T124 455T111 312Q111 235 124 170T159 48T210 -57T274 -148H220V-148Z" />
<glyph unicode=")" glyph-name="parenright" horiz-adv-x="303" d="M26 -146Q60 -104 89 -56T141 49T176 171T189 314Q189 391 176 457T141 579T90 684T26 775H79Q113 734 143 685T196 579T231 455T244 314Q244 239 231 173T196 50T144 -57T79 -146H26V-146Z" />
<glyph unicode="*" glyph-name="asterisk" horiz-adv-x="421" d="M88 450L178 567L46 607L61 651L189 600L185 743H233L229 600L357 651L371 607L239 567L329 450L292 423L208 545L125 423L88 450Z" />
<glyph unicode="+" glyph-name="plus" horiz-adv-x="514" d="M231 319H36V365H231V574H279V365H474V319H279V110H231V319Z" />
<glyph unicode="," glyph-name="comma" horiz-adv-x="233" d="M33 -99L110 84L162 60L69 -117L33 -99Z" />
<glyph unicode="-" glyph-name="hyphen" horiz-adv-x="337" d="M62 302H271V252H62V302Z" />
<glyph unicode="." glyph-name="period" horiz-adv-x="233" d="M114 -5Q97 -5 85 7T72 37Q72 55 84 67T114 80Q132 80 144 68T157 37Q157 20 145 8T114 -5Z" />
<glyph unicode="/" glyph-name="slash" horiz-adv-x="395" d="M304 776H354L63 -148H13L304 776Z" />
<glyph unicode="0" glyph-name="zero" horiz-adv-x="663" d="M332 39Q438 39 492 113T546 330V390Q546 456 532 509T489 599T421 657T329 677Q226 677 170 602T114 388V327Q114 184 171 112T332 39ZM332 -8Q268 -8 217 15T131 81T76 187T57 327V387Q57 465 75
527T129 633T214 700T329 723Q393 723 443 700T529 633T584 528T603 390V329Q603 251 585 189T533 83T448 16T332 -8Z" />
<glyph unicode="1" glyph-name="one" horiz-adv-x="372" d="M191 657L27 543V595L199 715H246V0H191V657Z" />
<glyph unicode="2" glyph-name="two" horiz-adv-x="541" d="M20 13L307 310Q364 369 391 420T419 530Q419 602 378 639T267 677Q198 677 153 636T96 507H44Q48 558 66 598T113 665T181 708T267 723Q313 723 351 710T417 672T460 611T475 528Q475 462 440 401T339
275L108 46H485V0H20V13Z" />
<glyph unicode="3" glyph-name="three" horiz-adv-x="571" d="M276 -8Q221 -8 178 9T104 54T56 121T37 202H88Q91 168 104 139T140 87T197 51T277 38Q364 38 410 80T456 198Q456 267 417 309T293 351H241V398H289Q328 398 355 408T400 437T426 481T434 534Q434
595 397 635T287 676Q212 676 167 634T115 527H65Q68 568 85 603T131 665T200 707T287 723Q335 723 372 708T435 668T474 608T488 535Q488 476 456 436T371 378Q435 364 474 319T513 198Q513 149 496 111T447 47T372 6T276 -8Z" />
<glyph unicode="4" glyph-name="four" horiz-adv-x="599" d="M402 161H33V178L379 715H457V207H556V161H457V0H402V161ZM402 207V674L107 207H402Z" />
<glyph unicode="5" glyph-name="five" horiz-adv-x="565" d="M268 -8Q214 -8 173 7T103 48T58 110T38 184H92Q96 154 108 128T141 81T193 50T268 38Q354 38 402 89T450 232Q450 274 437 308T401 367T347 405T278 419Q212 419 171 397T101 341H80V715H470V667H127V405Q150
428 190 446T287 465Q333 465 373 449T443 402T490 329T507 232Q507 176 489 132T439 56T364 9T268 -8Z" />
<glyph unicode="6" glyph-name="six" horiz-adv-x="604" d="M309 -8Q241 -8 194 15T117 79T74 175T60 293V345Q60 443 80 514T135 632T220 701T329 723Q408 723 462 684T530 560H477Q455 676 326 676Q280 676 242 659T175 603T132 506T115 362V333Q127 363 148
385T195 423T252 447T315 455Q371 455 414 438T488 389T533 316T549 226Q549 174 532 131T484 57T408 9T309 -8ZM309 37Q351 37 384 50T442 89T479 148T492 224Q492 266 480 300T445 358T387 396T308 410Q270 410 236 398T177 363T136 307T121 233Q121 192 133
157T168 95T227 53T309 37Z" />
<glyph unicode="7" glyph-name="seven" horiz-adv-x="508" d="M415 669H28V715H485V706L206 0H149L415 669Z" />
<glyph unicode="8" glyph-name="eight" horiz-adv-x="587" d="M292 -8Q246 -8 203 5T127 44T73 109T52 199Q52 236 64 267T97 322T147 362T209 387Q154 403 118 442T82 543Q82 585 99 618T146 674T213 710T292 723Q333 723 370 710T437 674T483 618T501 545Q501
482 466 443T376 387Q445 369 488 323T531 201Q531 149 512 110T459 45T383 5T292 -8ZM292 39Q332 39 365 49T423 80T460 131T474 203Q474 242 460 271T422 321T364 351T294 362Q257 362 224 352T165 321T124 270T109 201Q109 160 123 130T163 80T221 49T292 39ZM295
407Q327 407 354 416T402 442T433 485T445 545Q445 574 434 598T402 640T353 668T292 678Q259 678 231 669T182 642T150 599T138 543Q138 510 151 485T187 442T237 416T295 407Z" />
<glyph unicode="9" glyph-name="nine" horiz-adv-x="603" d="M281 -7Q193 -7 135 36T62 164H116Q130 104 171 72T282 39Q329 39 367 54T431 105T471 198T486 339V377Q474 348 453 327T404 290T346 268T283 260Q229 260 186 277T112 325T66 398T50 490Q50 542 67
585T115 658T191 706T291 723Q354 723 401 702T479 642T525 549T540 428V346Q540 251 523 185T472 75T390 13T281 -7ZM290 305Q329 305 363 317T423 351T464 405T479 477Q479 519 467 555T432 619T373 663T291 679Q249 679 215 666T157 627T120 568T107 492Q107
450 119 416T154 357T211 319T290 305Z" />
<glyph unicode=":" glyph-name="colon" horiz-adv-x="241" d="M118 -5Q101 -5 89 7T76 37Q76 55 88 67T118 80Q136 80 148 68T161 37Q161 20 149 8T118 -5ZM118 320Q101 320 89 332T76 362Q76 380 88 392T118 404Q136 404 148 392T161 362Q161 344 149 332T118 320Z" />
<glyph unicode=";" glyph-name="semicolon" horiz-adv-x="241" d="M23 -99L100 84L153 60L59 -117L23 -99ZM123 320Q106 320 94 332T81 362Q81 380 93 392T123 404Q141 404 153 392T166 362Q166 344 154 332T123 320Z" />
<glyph unicode="&lt;" glyph-name="less" horiz-adv-x="500" d="M51 315V329L435 540V488L129 322L435 156V104L51 315Z" />
<glyph unicode="=" glyph-name="equal" horiz-adv-x="488" d="M40 259H444V213H40V259ZM40 426H444V380H40V426Z" />
<glyph unicode="&gt;" glyph-name="greater" horiz-adv-x="500" d="M61 156L367 322L61 488V540L445 329V315L61 104V156Z" />
<glyph unicode="?" glyph-name="question" horiz-adv-x="481" d="M188 236Q188 266 196 290T217 335T249 375T288 415Q305 432 320 448T347 481T366 518T373 561Q373 612 342 645T243 678Q177 678 136 638T88 528H37Q40 572 56 608T99 669T163 709T244 723Q291
723 325 710T383 675T417 624T428 563Q428 533 420 509T397 465T364 426T325 387Q306 368 290 351T261 316T243 278T236 232V179H188V236ZM211 -5Q193 -5 181 7T168 37Q168 55 180 67T211 80Q228 80 240 68T253 37Q253 20 241 8T211 -5Z" />
<glyph unicode="@" glyph-name="at" horiz-adv-x="913" d="M460 -147Q359 -147 282 -113T153 -23T73 108T46 262Q46 353 80 431T173 566T309 655T472 688Q562 688 634 660T758 583T837 466T865 322Q865 253 849 205T807 127T750 84T689 70Q633 70 607 96T575 171Q566
151 551 132T517 98T473 73T421 63Q386 63 357 75T306 109T274 164T262 237Q262 287 277 329T320 403T382 451T456 469Q511 469 544 442T587 376L596 460H649L621 220Q614 169 630 140T689 110Q714 110 737 122T779 160T807 225T818 320Q818 391 795 450T727 553T618
621T472 645Q394 645 326 617T206 537T126 416T96 263Q96 191 119 125T188 7T302 -74T460 -104Q559 -104 624 -75T732 0H782Q764 -30 733 -57T661 -104T569 -135T460 -147ZM430 105Q459 105 485 119T532 157T565 216T577 290Q577 356 546 391T460 426Q432 426 406
413T360 375T328 315T316 237Q316 174 347 140T430 105Z" />
<glyph unicode="A" glyph-name="A" horiz-adv-x="658" d="M290 715H364L621 0H565L486 219H164L86 0H33L290 715ZM180 264H470L325 669L180 264Z" />
<glyph unicode="B" glyph-name="B" horiz-adv-x="608" d="M92 715H295Q342 715 382 705T451 673T496 617T512 534V530Q512 409 390 375Q471 360 509 317T547 201V197Q547 99 487 50T325 0H92V715ZM324 45Q409 45 451 83T493 197V201Q493 349 305 349H147V45H324ZM296
393Q378 393 417 428T457 531V535Q457 605 415 637T294 670H147V393H296Z" />
<glyph unicode="C" glyph-name="C" horiz-adv-x="729" d="M385 -8Q308 -8 247 18T143 91T76 205T53 353V361Q53 440 78 506T149 621T254 697T385 724Q440 724 489 710T576 667T640 597T674 500H618Q601 587 544 633T386 679Q326 679 276 656T188 592T131 492T110
362V354Q110 282 129 224T184 124T271 61T386 39Q483 39 548 88T630 230H682Q672 172 646 128T582 53T493 8T385 -8Z" />
<glyph unicode="D" glyph-name="D" horiz-adv-x="690" d="M274 46Q350 46 407 69T501 133T557 231T576 356V364Q576 430 558 486T503 582T409 646T273 669H148V46H274ZM92 715H278Q366 715 433 688T544 614T611 503T634 364V355Q634 281 613 216T547 103T435 28T276
0H92V715Z" />
<glyph unicode="E" glyph-name="E" horiz-adv-x="570" d="M92 715H503V669H148V390H436V344H148V46H521V0H92V715Z" />
<glyph unicode="F" glyph-name="F" horiz-adv-x="544" d="M92 715H499V669H148V385H424V339H148V0H92V715Z" />
<glyph unicode="G" glyph-name="G" horiz-adv-x="760" d="M396 -8Q315 -8 252 19T144 94T77 208T53 353V361Q53 439 78 505T150 620T258 696T394 724Q445 724 492 712T578 673T644 607T681 511H625Q605 600 543 639T395 679Q330 679 278 656T188 590T131 490T110
362V354Q110 283 129 225T184 125T273 61T396 38Q459 38 506 56T584 109T632 191T649 298V302H429V349H703V308Q703 231 681 172T619 73T522 13T396 -8Z" />
<glyph unicode="H" glyph-name="H" horiz-adv-x="721" d="M92 715H148V382H569V715H625V0H569V335H148V0H92V715Z" />
<glyph unicode="I" glyph-name="I" horiz-adv-x="254" d="M97 715H153V0H97V715Z" />
<glyph unicode="J" glyph-name="J" horiz-adv-x="405" d="M137 -7Q99 -7 75 -1T37 13V60Q56 52 79 46T134 39Q194 39 228 72T263 183V715H319V181Q319 131 305 96T267 38T210 4T137 -7Z" />
<glyph unicode="K" glyph-name="K" horiz-adv-x="603" d="M92 715H148V363L495 716H559L213 367L576 0H508L148 361V0H92V715Z" />
<glyph unicode="L" glyph-name="L" horiz-adv-x="534" d="M92 715H148V46H495V0H92V715Z" />
<glyph unicode="M" glyph-name="M" horiz-adv-x="855" d="M92 715H172L424 101L677 715H755V0H700V645L431 0H413L144 645V0H92V715Z" />
<glyph unicode="N" glyph-name="N" horiz-adv-x="717" d="M92 715H168L568 77V715H621V0H555L146 653V0H92V715Z" />
<glyph unicode="O" glyph-name="O" horiz-adv-x="805" d="M403 39Q467 39 520 63T611 129T670 229T691 356V364Q691 429 671 486T612 585T521 652T401 677Q335 677 282 653T190 587T131 487T110 362V354Q110 286 132 228T194 128T287 63T403 39ZM403 -8Q326 -8
262 20T152 97T79 212T53 353V361Q53 437 79 503T151 618T262 695T401 723Q477 723 540 695T650 619T723 504T749 363V355Q749 279 723 213T651 98T542 21T403 -8Z" />
<glyph unicode="P" glyph-name="P" horiz-adv-x="572" d="M92 715H281Q333 715 377 704T455 669T506 607T525 514V510Q525 455 507 416T456 353T379 317T282 306H148V0H92V715ZM286 351Q373 351 421 389T469 510V514Q469 557 456 587T419 635T360 661T284 669H148V351H286Z"
/>
<glyph unicode="Q" glyph-name="Q" horiz-adv-x="805" d="M579 40Q541 17 497 5T403 -8Q326 -8 262 20T152 97T79 212T53 353V361Q53 437 79 503T151 618T262 695T401 723Q477 723 540 695T650 619T723 504T749 363V355Q749 266 714 192T618 67L706 -27L672 -60L579
40ZM403 39Q483 39 546 76L445 186L479 219L585 103Q636 146 663 211T691 356V364Q691 429 671 486T612 585T521 652T401 677Q335 677 282 653T190 587T131 487T110 362V354Q110 286 132 228T194 128T287 63T403 39Z" />
<glyph unicode="R" glyph-name="R" horiz-adv-x="610" d="M92 715H288Q340 715 384 705T461 671T512 612T531 523V519Q531 474 517 441T479 386T420 350T346 330L573 0H511L287 326H148V0H92V715ZM291 371Q378 371 426 406T475 519V523Q475 564 462 592T425 637T367
661T291 669H148V371H291Z" />
<glyph unicode="S" glyph-name="S" horiz-adv-x="606" d="M308 -8Q242 -8 194 9T114 55T65 122T42 205H97Q101 171 114 141T151 88T214 52T308 38Q350 38 384 49T442 81T480 130T493 191Q493 228 483 254T451 299T392 328T301 348Q183 365 127 408T70 536Q70 578
86 612T132 671T203 709T295 723Q395 723 454 676T525 543H474Q461 610 418 643T295 677Q212 677 167 641T122 540Q122 511 130 488T160 448T217 419T310 398Q370 389 414 375T488 338T532 280T547 195Q547 153 530 116T482 52T406 8T308 -8Z" />
<glyph unicode="T" glyph-name="T" horiz-adv-x="563" d="M252 669H30V715H529V669H307V0H252V669Z" />
<glyph unicode="U" glyph-name="U" horiz-adv-x="686" d="M338 -7Q217 -7 150 60T82 256V715H137V262Q137 147 188 94T339 40Q442 40 493 94T545 275V715H601V267Q601 139 536 66T338 -7Z" />
<glyph unicode="V" glyph-name="V" horiz-adv-x="641" d="M29 715H84L323 55L555 715H607L354 0H288L29 715Z" />
<glyph unicode="W" glyph-name="W" horiz-adv-x="924" d="M33 715H89L253 85L442 715H481L663 83L836 715H887L691 0H637L461 616L275 0H222L33 715Z" />
<glyph unicode="X" glyph-name="X" horiz-adv-x="650" d="M293 370L67 715H128L328 412L526 715H584L356 369L600 0H537L320 328L103 0H46L293 370Z" />
<glyph unicode="Y" glyph-name="Y" horiz-adv-x="582" d="M268 318L23 715H85L297 365L499 715H555L324 317V0H268V318Z" />
<glyph unicode="Z" glyph-name="Z" horiz-adv-x="591" d="M27 11L470 669H63V715H548V705L111 48H542V0H27V11Z" />
<glyph unicode="[" glyph-name="bracketleft" horiz-adv-x="344" d="M93 776H299V733H146V-105H299V-148H93V776Z" />
<glyph unicode="\" glyph-name="backslash" horiz-adv-x="395" d="M37 776H87L378 -148H328L37 776Z" />
<glyph unicode="]" glyph-name="bracketright" horiz-adv-x="344" d="M42 -105H194V733H42V776H247V-148H42V-105Z" />
<glyph unicode="^" glyph-name="asciicircum" horiz-adv-x="482" d="M213 715H266L433 422H378L239 667L99 422H46L213 715Z" />
<glyph unicode="_" glyph-name="underscore" horiz-adv-x="393" d="M-1 -107H390V-151H-1V-107Z" />
<glyph unicode="`" glyph-name="grave" horiz-adv-x="404" d="M92 752H157L225 605H184L92 752Z" />
<glyph unicode="a" glyph-name="a" horiz-adv-x="533" d="M221 -8Q182 -8 150 1T94 29T57 76T44 141Q44 186 64 216T118 265T196 291T289 299H398V346Q398 420 367 453T266 486Q206 486 167 460T119 375H67Q71 416 89 445T135 494T196 522T268 531Q309 531 342
521T400 489T437 431T451 346V0H398V80Q373 42 330 17T221 -8ZM225 35Q261 35 292 45T347 73T384 115T398 169V258H291Q250 258 215 253T153 235T112 199T97 141Q97 90 128 63T225 35Z" />
<glyph unicode="b" glyph-name="b" horiz-adv-x="616" d="M334 -8Q295 -8 263 3T206 31T163 72T135 119V0H82V773H135V401Q146 426 165 449T211 491T268 520T334 531Q383 531 426 513T501 460T551 377T569 267V259Q569 197 552 148T503 64T428 11T334 -8ZM330
37Q413 37 463 94T514 257V265Q514 319 499 360T459 429T400 471T329 486Q291 486 256 472T193 430T150 361T134 265V257Q134 203 149 162T191 94T253 52T330 37Z" />
<glyph unicode="c" glyph-name="c" horiz-adv-x="560" d="M293 -8Q240 -8 195 11T115 64T62 147T43 256V264Q43 324 62 373T116 457T195 512T293 531Q333 531 370 521T436 489T486 434T511 357H459Q454 390 439 414T402 454T352 478T293 486Q252 486 217 471T155
427T113 357T98 264V256Q98 204 113 164T154 95T216 52T293 37Q326 37 355 46T407 74T446 119T467 181H516Q511 139 492 104T444 45T377 6T293 -8Z" />
<glyph unicode="d" glyph-name="d" horiz-adv-x="616" d="M278 -8Q228 -8 185 9T111 60T61 143T43 254V262Q43 322 61 372T112 457T189 511T286 531Q325 531 355 521T409 494T449 454T477 407V773H530V0H477V121Q466 97 448 74T404 33T347 4T278 -8ZM283 37Q323
37 358 51T420 93T462 162T478 258V266Q478 320 464 361T426 430T367 472T291 486Q249 486 214 471T153 428T113 358T98 264V256Q98 202 112 162T151 93T210 51T283 37Z" />
<glyph unicode="e" glyph-name="e" horiz-adv-x="558" d="M291 -8Q234 -8 189 11T111 65T61 148T43 256V264Q43 323 61 372T110 456T186 511T283 531Q330 531 372 516T445 469T494 389T512 276V257H98Q100 151 148 94T291 37Q357 37 399 64T455 146H508Q491 71
434 32T291 -8ZM457 300Q453 396 407 441T283 486Q245 486 213 473T157 436T119 378T100 300H457Z" />
<glyph unicode="f" glyph-name="f" horiz-adv-x="337" d="M105 478H26V523H105V617Q105 699 146 737T253 776Q272 776 284 774T311 767V722Q300 726 286 728T255 731Q211 731 185 705T158 622V523H304V478H158V0H105V478Z" />
<glyph unicode="g" glyph-name="g" horiz-adv-x="616" d="M288 -188Q231 -188 190 -175T120 -141T75 -91T54 -30H108Q119 -81 162 -112T287 -143Q329 -143 364 -133T424 -102T463 -46T477 37V144Q466 120 448 98T404 57T347 28T279 17Q229 17 186 34T111 85T61
164T43 267V274Q43 330 61 377T112 458T189 512T286 531Q325 531 355 521T409 495T449 456T477 410V523H530V35Q530 -23 512 -65T461 -134T385 -175T288 -188ZM284 62Q324 62 359 76T420 117T462 182T478 270V278Q478 327 464 366T426 431T367 472T291 486Q249
486 214 472T153 430T113 364T98 276V268Q98 219 112 181T152 117T211 76T284 62Z" />
<glyph unicode="h" glyph-name="h" horiz-adv-x="587" d="M82 773H135V421Q144 442 161 462T201 497T255 522T320 531Q362 531 396 520T454 483T492 418T506 322V0H453V325Q453 409 416 447T308 485Q275 485 244 474T189 442T150 390T135 317V0H82V773Z" />
<glyph unicode="i" glyph-name="i" horiz-adv-x="225" d="M84 523H137V0H84V523ZM110 635Q94 635 83 646T72 673Q72 688 83 699T110 710Q126 710 136 699T147 673Q147 657 137 646T110 635Z" />
<glyph unicode="j" glyph-name="j" horiz-adv-x="225" d="M7 -143Q52 -139 68 -117T84 -52V523H137V-48Q137 -117 108 -151T7 -188V-143ZM110 635Q94 635 83 646T72 673Q72 688 83 699T110 710Q126 710 136 699T147 673Q147 657 137 646T110 635Z" />
<glyph unicode="k" glyph-name="k" horiz-adv-x="491" d="M82 773H135V277L390 523H453L198 279L470 0H404L135 277V0H82V773Z" />
<glyph unicode="l" glyph-name="l" horiz-adv-x="226" d="M84 773H138V0H84V773Z" />
<glyph unicode="m" glyph-name="m" horiz-adv-x="908" d="M82 523H135V424Q144 445 160 464T197 499T246 522T306 531Q365 531 407 504T466 414Q491 470 541 500T652 531Q690 531 722 520T777 485T814 422T827 327V0H774V330Q774 414 740 449T643 485Q613 485
584 475T532 443T495 391T481 319V0H428V330Q428 414 394 449T297 485Q267 485 238 475T186 443T149 391T135 319V0H82V523Z" />
<glyph unicode="n" glyph-name="n" horiz-adv-x="587" d="M82 523H135V421Q144 442 161 462T201 497T255 522T320 531Q362 531 396 520T454 483T492 418T506 322V0H453V325Q453 409 416 447T308 485Q275 485 244 474T189 442T150 390T135 317V0H82V523Z" />
<glyph unicode="o" glyph-name="o" horiz-adv-x="595" d="M296 37Q338 37 374 52T436 96T478 165T493 257V265Q493 317 478 358T437 427T374 471T296 486Q254 486 218 471T155 427T113 357T98 265V257Q98 207 113 166T154 97T217 53T296 37ZM295 -8Q242 -8 196
11T116 66T63 150T43 257V265Q43 324 63 373T117 457T197 511T296 531Q349 531 395 512T475 458T528 375T548 266V258Q548 199 529 150T475 66T394 12T295 -8Z" />
<glyph unicode="p" glyph-name="p" horiz-adv-x="616" d="M82 523H135V401Q146 426 165 449T211 491T268 520T334 531Q383 531 426 513T501 460T551 377T569 267V259Q569 197 552 148T503 64T428 11T334 -8Q295 -8 263 3T206 31T163 72T135 119V-182H82V523ZM330
37Q413 37 463 94T514 257V265Q514 319 499 360T459 429T400 471T329 486Q291 486 256 472T193 430T150 361T134 265V257Q134 203 149 162T191 94T253 52T330 37Z" />
<glyph unicode="q" glyph-name="q" horiz-adv-x="616" d="M477 121Q466 97 448 74T404 33T347 4T278 -8Q228 -8 185 9T111 60T61 143T43 254V262Q43 322 61 372T112 457T189 511T286 531Q325 531 355 521T409 494T449 454T477 407V523H530V-182H477V121ZM283 37Q323
37 358 51T420 93T462 162T478 258V266Q478 320 464 361T426 430T367 472T291 486Q249 486 214 471T153 428T113 358T98 264V256Q98 202 112 162T151 93T210 51T283 37Z" />
<glyph unicode="r" glyph-name="r" horiz-adv-x="352" d="M82 523H135V413Q157 461 198 494T312 530V480Q274 478 242 468T186 436T149 378T135 290V0H82V523Z" />
<glyph unicode="s" glyph-name="s" horiz-adv-x="469" d="M239 -9Q146 -9 95 36T38 156H89Q96 102 131 69T239 36Q305 36 338 63T372 139Q372 164 365 181T341 210T298 230T235 245Q187 254 153 265T97 293T65 333T55 391Q55 424 69 450T108 494T163 521T227 531Q262
531 293 524T348 499T388 455T409 389H358Q348 440 316 463T226 486Q171 486 138 461T104 393Q104 370 111 355T135 328T179 308T247 292Q289 284 321 275T376 249T411 207T423 143Q423 77 376 34T239 -9Z" />
<glyph unicode="t" glyph-name="t" horiz-adv-x="342" d="M230 -7Q167 -7 135 28T102 126V478H25V523H102V642H155V523H292V478H155V130Q155 82 176 60T233 38Q253 38 269 41T299 49V4Q286 -1 270 -4T230 -7Z" />
<glyph unicode="u" glyph-name="u" horiz-adv-x="583" d="M261 -8Q220 -8 187 3T129 38T91 100T77 192V523H130V195Q130 111 167 75T273 38Q305 38 335 48T390 80T429 132T444 205V523H497V0H444V100Q435 79 418 60T378 25T325 1T261 -8Z" />
<glyph unicode="v" glyph-name="v" horiz-adv-x="522" d="M25 523H83L261 53L438 523H492L295 0H226L25 523Z" />
<glyph unicode="w" glyph-name="w" horiz-adv-x="780" d="M29 523H86L226 65L369 523H414L552 65L693 523H747L582 0H521L391 438L252 0H192L29 523Z" />
<glyph unicode="x" glyph-name="x" horiz-adv-x="515" d="M223 270L41 523H104L255 310L404 523H463L284 274L482 0H419L253 234L87 0H29L223 270Z" />
<glyph unicode="y" glyph-name="y" d="M232 45L25 523H82L261 106L428 523H482L192 -182H137L232 45Z" />
<glyph unicode="z" glyph-name="z" horiz-adv-x="478" d="M24 9L364 478H54V523H447V513L110 47H440V0H24V9Z" />
<glyph unicode="{" glyph-name="braceleft" horiz-adv-x="367" d="M321 -148Q270 -148 231 -138T169 -104T137 -42T140 51L162 165Q167 191 164 214T146 255T107 283T42 294V334Q81 334 106 344T146 372T163 413T162 463L140 577Q129 632 137 670T168 731T231
765T321 776V734Q282 734 254 727T208 702T187 654T190 578L213 458Q224 395 197 361T119 314Q170 302 197 268T213 170L190 50Q182 4 186 -26T208 -73T253 -98T321 -106V-148V-148Z" />
<glyph unicode="|" glyph-name="bar" horiz-adv-x="245" d="M98 776H143V-148H98V776Z" />
<glyph unicode="}" glyph-name="braceright" horiz-adv-x="367" d="M42 -106Q81 -106 109 -99T154 -74T176 -26T172 50L150 170Q139 233 166 267T244 314Q193 326 166 360T150 458L172 578Q181 624 176 654T154 701T109 726T42 734V776Q93 776 132 766T194 732T225
670T223 577L200 463Q195 437 198 414T216 373T256 345T321 334V294Q282 294 256 284T216 256T199 215T200 165L223 51Q233 -4 226 -42T195 -103T132 -137T42 -148V-106Z" />
<glyph unicode="~" glyph-name="asciitilde" horiz-adv-x="442" d="M46 232Q51 284 78 313T143 342Q167 342 187 333T226 312T260 292T293 282Q315 282 330 299T347 344H391Q386 290 360 262T297 234Q272 234 251 243T212 264T178 284T145 294Q123 294 109 277T90
232H46V232Z" />
<glyph unicode="&#xa0;" glyph-name="uni00A0" horiz-adv-x="251" />
<glyph unicode="&#xa1;" glyph-name="exclamdown" horiz-adv-x="276" d="M136 603Q154 603 166 591T179 561Q179 543 167 531T136 518Q119 518 107 530T94 561Q94 578 106 590T136 603ZM165 -117H106L114 419H156L165 -117Z" />
<glyph unicode="&#xa2;" glyph-name="cent" horiz-adv-x="557" d="M270 -7Q221 -3 180 16T108 70T60 151T43 256V264Q43 322 60 369T109 451T181 506T270 530V629H310V530Q347 528 381 516T443 483T488 430T511 357H459Q450 418 409 449T310 485V38Q340 40 366
50T414 79T448 122T467 181H516Q511 141 494 108T449 50T387 11T310 -7V-135H270V-7ZM98 256Q98 206 111 167T147 101T201 57T270 38V485Q233 481 202 465T147 420T111 353T98 264V256Z" />
<glyph unicode="&#xa3;" glyph-name="sterling" horiz-adv-x="593" d="M49 368H120Q110 402 103 438T96 519Q96 565 112 602T157 667T225 708T312 723Q409 723 462 673T523 540H469Q458 606 423 641T312 676Q277 676 248 665T197 633T165 583T153 519Q153 475
160 439T176 368H405V327H187Q195 296 200 263T206 190Q206 167 201 147T188 109Q216 104 244 93T299 70T351 49T401 40Q447 40 474 65T504 144H552Q547 75 509 34T406 -8Q371 -8 340 3T278 28T221 53T168 65Q133 65 114 46T90 0H42Q44 16 50 33T68 66T96 92T136
108Q145 125 150 145T156 191Q156 228 149 261T132 327H49V368Z" />
<glyph unicode="&#xa5;" glyph-name="yen" horiz-adv-x="552" d="M73 344H244L28 715H88L283 375L466 715H520L317 344H488V305H308V208H488V169H308V0H254V169H73V208H254V305H73V344Z" />
<glyph unicode="&#xa6;" glyph-name="brokenbar" horiz-adv-x="248" d="M98 297H143V-148H98V297ZM98 776H143V367H98V776Z" />
<glyph unicode="&#xa7;" glyph-name="section" horiz-adv-x="539" d="M266 -137Q187 -137 136 -98T81 16H136Q141 -35 173 -63T265 -91Q326 -91 355 -61T385 16Q385 42 378 61T352 94T305 120T231 143Q190 154 156 167T98 199T60 244T46 307Q46 360 82 395T174
444Q140 465 122 493T104 572Q104 606 117 634T154 682T208 713T273 724Q350 724 394 686T443 578H389Q384 626 359 652T274 678Q220 678 188 650T156 573Q156 548 163 530T186 498T231 472T302 448Q344 436 378 423T437 391T475 346T489 282Q489 231 456 196T367
146Q402 126 419 95T437 17Q437 -16 425 -44T390 -93T336 -125T266 -137ZM325 169Q379 181 407 207T436 279Q436 329 399 353T291 398L214 421Q164 412 132 384T99 311Q99 285 109 267T138 236T184 212T247 192L325 169Z" />
<glyph unicode="&#xa8;" glyph-name="dieresis" horiz-adv-x="404" d="M117 636Q101 636 91 647T80 673Q80 688 90 698T117 709Q132 709 142 699T153 673Q153 658 143 647T117 636ZM283 636Q268 636 258 647T247 673Q247 688 257 698T283 709Q299 709 309 699T320
673Q320 658 310 647T283 636Z" />
<glyph unicode="&#xa9;" glyph-name="copyright" horiz-adv-x="848" d="M424 151Q379 151 343 165T281 207T243 272T229 356V363Q229 409 244 446T285 511T346 553T423 568Q490 568 537 535T594 435H542Q525 526 423 526Q392 526 367 515T323 482T294 431T283
363V357Q283 281 320 238T424 194Q474 194 507 219T549 293H598Q589 224 541 188T424 151ZM421 23Q488 23 548 48T654 118T725 224T752 359Q752 431 727 492T657 597T552 667T423 692Q354 692 294 667T189 597T118 491T92 357Q92 284 118 223T190 117T295 48T421
23ZM421 -9Q345 -9 278 19T162 96T84 212T55 357Q55 433 83 500T161 617T278 695T423 724Q501 724 568 696T684 618T761 502T789 359Q789 281 761 214T683 97T566 19T421 -9Z" />
<glyph unicode="&#xaa;" glyph-name="ordfeminine" horiz-adv-x="422" d="M176 302Q116 302 77 331T37 419Q37 455 52 479T95 517T157 538T231 544H312V577Q312 631 289 656T213 681Q168 681 141 662T105 601H55Q58 632 72 655T108 693T158 715T216 723Q282 723
322 689T362 577V309H312V369Q293 340 260 321T176 302ZM184 342Q211 342 234 349T274 370T302 401T312 442V507H233Q202 507 176 503T130 490T99 463T88 420Q88 382 111 362T184 342Z" />
<glyph unicode="&#xab;" glyph-name="guillemotleft" horiz-adv-x="452" d="M54 261L189 439H243L111 261L243 83H189L54 261ZM212 261L347 439H401L269 261L401 83H347L212 261Z" />
<glyph unicode="&#xae;" glyph-name="registered" horiz-adv-x="518" d="M183 621H258Q296 621 318 605T341 554V553Q341 527 327 512T290 492L355 393H314L253 486H220V393H183V621ZM257 514Q305 514 305 552V553Q305 574 293 583T257 592H220V514H257ZM257 310Q297
310 332 324T393 364T433 425T448 503Q448 545 434 580T394 642T333 682T257 697Q216 697 181 683T121 642T81 580T66 502Q66 460 81 425T121 364T182 324T257 310ZM257 282Q211 282 171 299T100 345T53 415T35 502Q35 548 52 588T99 659T169 706T257 724Q304 724
344 707T415 660T462 590T479 503Q479 456 462 416T414 346T344 299T257 282Z" />
<glyph unicode="&#xaf;" glyph-name="macron" horiz-adv-x="404" d="M79 689H321V647H79V689Z" />
<glyph unicode="&#xb0;" glyph-name="degree" horiz-adv-x="411" d="M204 466Q226 466 245 474T278 497T300 532T308 575Q308 598 300 618T279 653T246 676T204 685Q181 685 162 677T128 653T106 618T98 575Q98 529 128 498T204 466ZM204 427Q172 427 144 438T96
470T63 518T51 575Q51 606 63 633T95 680T144 712T204 724Q235 724 263 712T311 680T344 633T356 575Q356 545 344 518T312 471T263 439T204 427Z" />
<glyph unicode="&#xb1;" glyph-name="plusminus" horiz-adv-x="514" d="M231 330H36V375H231V574H279V375H474V330H279V131H231V330ZM36 45H474V0H36V45Z" />
<glyph unicode="&#xb2;" glyph-name="twosuperior" horiz-adv-x="291" d="M15 381L145 512Q176 544 191 568T207 620Q207 650 189 667T141 684Q108 684 90 664T66 606H25Q28 660 59 689T142 719Q193 719 222 692T251 621Q251 586 233 558T179 494L89 407H255V372H15V381Z" />
<glyph unicode="&#xb3;" glyph-name="threesuperior" horiz-adv-x="312" d="M153 368Q93 368 60 397T24 473H65Q69 444 89 423T152 402Q190 402 210 419T230 469Q230 498 211 516T157 534H130V567H155Q189 567 205 583T221 626Q221 652 204 668T154 685Q119 685
100 667T77 619H37Q40 661 70 690T155 719Q206 719 235 693T264 628Q264 599 248 580T205 553Q235 546 255 525T275 468Q275 420 242 394T153 368Z" />
<glyph unicode="&#xb4;" glyph-name="acute" horiz-adv-x="404" d="M243 752H308L216 605H175L243 752Z" />
<glyph unicode="&#xb6;" glyph-name="paragraph" horiz-adv-x="563" d="M271 353H257Q210 353 172 364T105 397T61 452T45 530Q45 577 61 611T105 669T173 703T257 715H465V-100H419V677H316V-100H271V353Z" />
<glyph unicode="&#xb7;" glyph-name="periodcentered" horiz-adv-x="233" d="M114 281Q97 281 85 293T72 324Q72 341 84 353T114 366Q132 366 144 354T157 324Q157 306 145 294T114 281Z" />
<glyph unicode="&#xb8;" glyph-name="cedilla" horiz-adv-x="404" d="M210 -212Q169 -212 144 -191T114 -134H158Q161 -151 173 -163T208 -176Q231 -176 244 -164T258 -132Q258 -110 244 -102T213 -93Q200 -93 191 -96T177 -101L151 -80L196 0H239L204 -61Q222
-57 240 -59T273 -71T296 -95T305 -134Q305 -172 277 -192T210 -212Z" />
<glyph unicode="&#xb9;" glyph-name="onesuperior" horiz-adv-x="221" d="M109 668L21 607V648L117 715H154V372H109V668Z" />
<glyph unicode="&#xba;" glyph-name="ordmasculine" horiz-adv-x="479" d="M238 344Q269 344 296 355T342 388T373 441T384 510V516Q384 554 373 584T343 636T296 668T238 680Q207 680 180 669T134 636T103 584T91 515V509Q91 471 102 441T132 389T179 356T238
344ZM237 302Q195 302 159 317T96 359T54 425T39 509V515Q39 562 54 600T97 665T160 707T238 722Q280 722 316 708T379 666T421 601T436 516V510Q436 462 421 424T379 358T316 317T237 302Z" />
<glyph unicode="&#xbb;" glyph-name="guillemotright" horiz-adv-x="452" d="M179 261L47 439H101L236 261L101 83H47L179 261ZM337 261L205 439H259L394 261L259 83H205L337 261Z" />
<glyph unicode="&#xbc;" glyph-name="onequarter" horiz-adv-x="665" d="M112 668L24 607V648L120 715H157V372H112V668ZM561 715H606L90 0H45L561 715ZM543 75H365V90L529 344H586V109H633V75H586V1H543V75ZM544 109V310L416 109H544Z" />
<glyph unicode="&#xbd;" glyph-name="onehalf" horiz-adv-x="669" d="M113 668L25 607V648L121 715H158V372H113V668ZM545 715H590L74 0H29L545 715ZM389 10L519 141Q550 173 565 197T581 249Q581 279 563 296T515 313Q482 313 464 293T440 235H399Q402 289 433
318T516 348Q567 348 596 321T625 250Q625 215 607 187T553 123L463 36H629V1H389V10Z" />
<glyph unicode="&#xbe;" glyph-name="threequarters" horiz-adv-x="679" d="M156 368Q96 368 63 397T27 473H68Q72 444 92 423T155 402Q193 402 213 419T233 469Q233 498 214 516T160 534H133V567H158Q192 567 208 583T224 626Q224 652 207 668T157 685Q122 685
103 667T80 619H40Q43 661 73 690T158 719Q209 719 238 693T267 628Q267 599 251 580T208 553Q238 546 258 525T278 468Q278 420 245 394T156 368ZM602 715H647L131 0H86L602 715ZM553 75H375V90L539 344H596V109H643V75H596V1H553V75ZM554 109V310L426 109H554Z"
/>
<glyph unicode="&#xbf;" glyph-name="questiondown" horiz-adv-x="481" d="M288 362Q288 332 280 308T259 263T227 223T188 183Q171 166 156 150T129 117T110 80T103 37Q103 -14 134 -47T233 -80Q299 -80 340 -40T388 70H439Q436 26 420 -10T377 -71T313 -111T232
-125Q185 -125 151 -112T93 -77T59 -26T48 35Q48 65 56 89T79 133T112 172T151 211Q170 230 186 247T215 282T233 320T240 366V419H288V362ZM265 603Q283 603 295 591T308 561Q308 543 296 531T265 518Q248 518 236 530T223 561Q223 578 235 590T265 603Z" />
<glyph unicode="&#xc0;" glyph-name="Agrave" horiz-adv-x="658" d="M290 715H364L621 0H565L486 219H164L86 0H33L290 715ZM180 264H470L325 669L180 264ZM220 893H286L350 771H308L220 893Z" />
<glyph unicode="&#xc1;" glyph-name="Aacute" horiz-adv-x="658" d="M290 715H364L621 0H565L486 219H164L86 0H33L290 715ZM180 264H470L325 669L180 264ZM359 893H425L337 771H295L359 893Z" />
<glyph unicode="&#xc2;" glyph-name="Acircumflex" horiz-adv-x="658" d="M290 715H364L621 0H565L486 219H164L86 0H33L290 715ZM180 264H470L325 669L180 264ZM299 893H349L457 771H415L323 849L230 771H189L299 893Z" />
<glyph unicode="&#xc3;" glyph-name="Atilde" horiz-adv-x="658" d="M290 715H364L621 0H565L486 219H164L86 0H33L290 715ZM180 264H470L325 669L180 264ZM385 774Q367 774 351 782T319 800T289 818T262 827Q245 827 233 813T216 773H175Q181 821 205 846T262
872Q280 872 296 864T327 846T357 828T385 819Q402 819 414 833T431 873H471Q465 825 441 800T385 774Z" />
<glyph unicode="&#xc4;" glyph-name="Adieresis" horiz-adv-x="658" d="M290 715H364L621 0H565L486 219H164L86 0H33L290 715ZM180 264H470L325 669L180 264ZM233 788Q217 788 207 799T196 825Q196 839 206 850T233 861Q248 861 258 850T269 825Q269 810 259
799T233 788ZM413 788Q398 788 388 799T377 825Q377 839 387 850T413 861Q428 861 438 850T449 825Q449 810 439 799T413 788Z" />
<glyph unicode="&#xc5;" glyph-name="Aring" horiz-adv-x="658" d="M290 715H364L621 0H565L486 219H164L86 0H33L290 715ZM180 264H470L325 669L180 264ZM323 786Q349 786 366 804T384 850Q384 877 367 895T323 914Q297 914 280 896T262 850Q262 823 279 805T323
786ZM323 754Q303 754 286 761T255 782T233 813T225 850Q225 869 233 886T254 917T285 937T323 945Q343 945 361 938T392 917T413 887T421 850Q421 830 414 813T393 783T361 762T323 754Z" />
<glyph unicode="&#xc6;" glyph-name="AE" horiz-adv-x="950" d="M392 715H883V669H528V390H816V344H528V46H901V0H472V220H196L86 0H29L392 715ZM218 264H472V669H421L218 264Z" />
<glyph unicode="&#xc7;" glyph-name="Ccedilla" horiz-adv-x="729" d="M371 -212Q330 -212 305 -191T275 -134H319Q322 -151 334 -163T369 -176Q392 -176 405 -164T419 -132Q419 -110 405 -102T374 -93Q361 -93 352 -96T338 -101L312 -80L353 -7Q283 -2 228 26T133
101T74 212T53 353V361Q53 440 78 506T149 621T254 697T385 724Q440 724 489 710T576 667T640 597T674 500H618Q601 587 544 633T386 679Q326 679 276 656T188 592T131 492T110 362V354Q110 282 129 224T184 124T271 61T386 39Q483 39 548 88T630 230H682Q672 173
647 130T585 56T499 10T395 -8L365 -61Q383 -57 401 -59T434 -71T457 -95T466 -134Q466 -172 438 -192T371 -212Z" />
<glyph unicode="&#xc8;" glyph-name="Egrave" horiz-adv-x="570" d="M92 715H503V669H148V390H436V344H148V46H521V0H92V715ZM196 893H262L326 771H284L196 893Z" />
<glyph unicode="&#xc9;" glyph-name="Eacute" horiz-adv-x="570" d="M92 715H503V669H148V390H436V344H148V46H521V0H92V715ZM335 893H401L313 771H271L335 893Z" />
<glyph unicode="&#xca;" glyph-name="Ecircumflex" horiz-adv-x="570" d="M92 715H503V669H148V390H436V344H148V46H521V0H92V715ZM275 893H325L433 771H391L299 849L206 771H165L275 893Z" />
<glyph unicode="&#xcb;" glyph-name="Edieresis" horiz-adv-x="570" d="M92 715H503V669H148V390H436V344H148V46H521V0H92V715ZM209 788Q193 788 183 799T172 825Q172 839 182 850T209 861Q224 861 234 850T245 825Q245 810 235 799T209 788ZM389 788Q374 788
364 799T353 825Q353 839 363 850T389 861Q404 861 414 850T425 825Q425 810 415 799T389 788Z" />
<glyph unicode="&#xcc;" glyph-name="Igrave" horiz-adv-x="254" d="M97 715H153V0H97V715ZM279 893H345L409 771H367L279 893Z" />
<glyph unicode="&#xcd;" glyph-name="Iacute" horiz-adv-x="254" d="M97 715H153V0H97V715ZM418 893H484L396 771H354L418 893Z" />
<glyph unicode="&#xce;" glyph-name="Icircumflex" horiz-adv-x="254" d="M97 715H153V0H97V715ZM358 893H408L516 771H474L382 849L289 771H248L358 893Z" />
<glyph unicode="&#xcf;" glyph-name="Idieresis" horiz-adv-x="254" d="M97 715H153V0H97V715ZM292 788Q276 788 266 799T255 825Q255 839 265 850T292 861Q307 861 317 850T328 825Q328 810 318 799T292 788ZM472 788Q457 788 447 799T436 825Q436 839 446 850T472
861Q487 861 497 850T508 825Q508 810 498 799T472 788Z" />
<glyph unicode="&#xd0;" glyph-name="Eth" horiz-adv-x="701" d="M28 381H103V715H288Q377 715 443 688T554 614T621 503T644 364V355Q644 281 623 216T557 103T446 28T286 0H103V337H28V381ZM284 46Q360 46 417 69T512 133T568 231T587 356V364Q587 430 569 486T514
582T420 646T283 669H159V381H367V337H159V46H284Z" />
<glyph unicode="&#xd1;" glyph-name="Ntilde" horiz-adv-x="717" d="M92 715H168L568 77V715H621V0H555L146 653V0H92V715ZM429 774Q411 774 395 782T363 800T333 818T306 827Q289 827 277 813T260 773H219Q225 821 249 846T306 872Q324 872 340 864T371 846T401
828T429 819Q446 819 458 833T475 873H515Q509 825 485 800T429 774Z" />
<glyph unicode="&#xd2;" glyph-name="Ograve" horiz-adv-x="805" d="M403 39Q467 39 520 63T611 129T670 229T691 356V364Q691 429 671 486T612 585T521 652T401 677Q335 677 282 653T190 587T131 487T110 362V354Q110 286 132 228T194 128T287 63T403 39ZM403
-8Q326 -8 262 20T152 97T79 212T53 353V361Q53 437 79 503T151 618T262 695T401 723Q477 723 540 695T650 619T723 504T749 363V355Q749 279 723 213T651 98T542 21T403 -8ZM297 893H363L427 771H385L297 893Z" />
<glyph unicode="&#xd3;" glyph-name="Oacute" horiz-adv-x="805" d="M403 39Q467 39 520 63T611 129T670 229T691 356V364Q691 429 671 486T612 585T521 652T401 677Q335 677 282 653T190 587T131 487T110 362V354Q110 286 132 228T194 128T287 63T403 39ZM403
-8Q326 -8 262 20T152 97T79 212T53 353V361Q53 437 79 503T151 618T262 695T401 723Q477 723 540 695T650 619T723 504T749 363V355Q749 279 723 213T651 98T542 21T403 -8ZM436 893H502L414 771H372L436 893Z" />
<glyph unicode="&#xd4;" glyph-name="Ocircumflex" horiz-adv-x="805" d="M403 39Q467 39 520 63T611 129T670 229T691 356V364Q691 429 671 486T612 585T521 652T401 677Q335 677 282 653T190 587T131 487T110 362V354Q110 286 132 228T194 128T287 63T403 39ZM403
-8Q326 -8 262 20T152 97T79 212T53 353V361Q53 437 79 503T151 618T262 695T401 723Q477 723 540 695T650 619T723 504T749 363V355Q749 279 723 213T651 98T542 21T403 -8ZM376 893H426L534 771H492L400 849L307 771H266L376 893Z" />
<glyph unicode="&#xd5;" glyph-name="Otilde" horiz-adv-x="805" d="M403 39Q467 39 520 63T611 129T670 229T691 356V364Q691 429 671 486T612 585T521 652T401 677Q335 677 282 653T190 587T131 487T110 362V354Q110 286 132 228T194 128T287 63T403 39ZM403
-8Q326 -8 262 20T152 97T79 212T53 353V361Q53 437 79 503T151 618T262 695T401 723Q477 723 540 695T650 619T723 504T749 363V355Q749 279 723 213T651 98T542 21T403 -8ZM462 774Q444 774 428 782T396 800T366 818T339 827Q322 827 310 813T293 773H252Q258
821 282 846T339 872Q357 872 373 864T404 846T434 828T462 819Q479 819 491 833T508 873H548Q542 825 518 800T462 774Z" />
<glyph unicode="&#xd6;" glyph-name="Odieresis" horiz-adv-x="805" d="M403 39Q467 39 520 63T611 129T670 229T691 356V364Q691 429 671 486T612 585T521 652T401 677Q335 677 282 653T190 587T131 487T110 362V354Q110 286 132 228T194 128T287 63T403 39ZM403
-8Q326 -8 262 20T152 97T79 212T53 353V361Q53 437 79 503T151 618T262 695T401 723Q477 723 540 695T650 619T723 504T749 363V355Q749 279 723 213T651 98T542 21T403 -8ZM310 788Q294 788 284 799T273 825Q273 839 283 850T310 861Q325 861 335 850T346 825Q346
810 336 799T310 788ZM490 788Q475 788 465 799T454 825Q454 839 464 850T490 861Q505 861 515 850T526 825Q526 810 516 799T490 788Z" />
<glyph unicode="&#xd7;" glyph-name="multiply" horiz-adv-x="487" d="M45 174L206 334L45 495L76 527L237 366L398 527L429 495L268 334L429 174L398 143L237 303L76 143L45 174Z" />
<glyph unicode="&#xd8;" glyph-name="Oslash" horiz-adv-x="805" d="M41 5L138 112Q97 160 75 221T53 353V361Q53 437 79 503T151 618T262 695T401 723Q466 723 521 703T622 645L707 739L736 709L652 617Q698 568 723 503T749 363V355Q749 279 723 213T651 98T542
21T403 -8Q332 -8 272 16T167 82L71 -24L41 5ZM403 39Q467 39 520 63T611 129T670 229T691 356V364Q691 429 672 483T618 580L201 119Q240 81 291 60T403 39ZM110 354Q110 293 126 242T173 151L589 609Q553 641 506 659T401 677Q335 677 282 653T190 587T131 487T110
362V354Z" />
<glyph unicode="&#xd9;" glyph-name="Ugrave" horiz-adv-x="686" d="M338 -7Q217 -7 150 60T82 256V715H137V262Q137 147 188 94T339 40Q442 40 493 94T545 275V715H601V267Q601 139 536 66T338 -7ZM238 893H304L368 771H326L238 893Z" />
<glyph unicode="&#xda;" glyph-name="Uacute" horiz-adv-x="686" d="M338 -7Q217 -7 150 60T82 256V715H137V262Q137 147 188 94T339 40Q442 40 493 94T545 275V715H601V267Q601 139 536 66T338 -7ZM377 893H443L355 771H313L377 893Z" />
<glyph unicode="&#xdb;" glyph-name="Ucircumflex" horiz-adv-x="686" d="M338 -7Q217 -7 150 60T82 256V715H137V262Q137 147 188 94T339 40Q442 40 493 94T545 275V715H601V267Q601 139 536 66T338 -7ZM317 893H367L475 771H433L341 849L248 771H207L317 893Z" />
<glyph unicode="&#xdc;" glyph-name="Udieresis" horiz-adv-x="686" d="M338 -7Q217 -7 150 60T82 256V715H137V262Q137 147 188 94T339 40Q442 40 493 94T545 275V715H601V267Q601 139 536 66T338 -7ZM251 788Q235 788 225 799T214 825Q214 839 224 850T251 861Q266
861 276 850T287 825Q287 810 277 799T251 788ZM431 788Q416 788 406 799T395 825Q395 839 405 850T431 861Q446 861 456 850T467 825Q467 810 457 799T431 788Z" />
<glyph unicode="&#xdd;" glyph-name="Yacute" horiz-adv-x="582" d="M268 318L23 715H85L297 365L499 715H555L324 317V0H268V318ZM328 893H394L306 771H264L328 893Z" />
<glyph unicode="&#xde;" glyph-name="Thorn" horiz-adv-x="572" d="M92 715H148V571H281Q333 571 377 561T455 527T506 467T525 375V371Q525 316 507 278T455 217T378 183T281 172H148V0H92V715ZM284 217Q371 217 420 252T469 371V375Q469 418 456 446T419 492T360
517T284 525H148V217H284Z" />
<glyph unicode="&#xdf;" glyph-name="germandbls" horiz-adv-x="574" d="M320 -7Q289 -7 266 -2T226 9V55Q244 47 266 43T318 38Q347 38 375 46T425 73T460 125T474 208V215Q474 259 458 296T413 360T344 401T258 415V461Q300 460 330 472T379 505T408 551T417
603V607Q417 664 383 698T281 732Q212 732 174 689T135 574V0H82V572Q82 619 97 656T139 720T202 761T281 776Q324 776 359 764T418 729T455 675T468 607V603Q468 576 460 551T435 504T394 466T340 441Q379 433 413 414T473 365T514 297T529 215V209Q529 148 511
107T464 40T397 4T320 -7Z" />
<glyph unicode="&#xe0;" glyph-name="agrave" horiz-adv-x="533" d="M221 -8Q182 -8 150 1T94 29T57 76T44 141Q44 186 64 216T118 265T196 291T289 299H398V346Q398 420 367 453T266 486Q206 486 167 460T119 375H67Q71 416 89 445T135 494T196 522T268 531Q309
531 342 521T400 489T437 431T451 346V0H398V80Q373 42 330 17T221 -8ZM225 35Q261 35 292 45T347 73T384 115T398 169V258H291Q250 258 215 253T153 235T112 199T97 141Q97 90 128 63T225 35ZM161 752H226L294 605H253L161 752Z" />
<glyph unicode="&#xe1;" glyph-name="aacute" horiz-adv-x="533" d="M221 -8Q182 -8 150 1T94 29T57 76T44 141Q44 186 64 216T118 265T196 291T289 299H398V346Q398 420 367 453T266 486Q206 486 167 460T119 375H67Q71 416 89 445T135 494T196 522T268 531Q309
531 342 521T400 489T437 431T451 346V0H398V80Q373 42 330 17T221 -8ZM225 35Q261 35 292 45T347 73T384 115T398 169V258H291Q250 258 215 253T153 235T112 199T97 141Q97 90 128 63T225 35ZM308 752H373L281 605H240L308 752Z" />
<glyph unicode="&#xe2;" glyph-name="acircumflex" horiz-adv-x="533" d="M221 -8Q182 -8 150 1T94 29T57 76T44 141Q44 186 64 216T118 265T196 291T289 299H398V346Q398 420 367 453T266 486Q206 486 167 460T119 375H67Q71 416 89 445T135 494T196 522T268
531Q309 531 342 521T400 489T437 431T451 346V0H398V80Q373 42 330 17T221 -8ZM225 35Q261 35 292 45T347 73T384 115T398 169V258H291Q250 258 215 253T153 235T112 199T97 141Q97 90 128 63T225 35ZM238 740H288L396 605H354L262 695L169 605H128L238 740Z"
/>
<glyph unicode="&#xe3;" glyph-name="atilde" horiz-adv-x="533" d="M221 -8Q182 -8 150 1T94 29T57 76T44 141Q44 186 64 216T118 265T196 291T289 299H398V346Q398 420 367 453T266 486Q206 486 167 460T119 375H67Q71 416 89 445T135 494T196 522T268 531Q309
531 342 521T400 489T437 431T451 346V0H398V80Q373 42 330 17T221 -8ZM225 35Q261 35 292 45T347 73T384 115T398 169V258H291Q250 258 215 253T153 235T112 199T97 141Q97 90 128 63T225 35ZM330 616Q312 616 296 624T264 642T234 660T206 669Q190 669 178 655T161
616H120Q126 664 150 689T207 715Q225 715 241 707T273 689T302 671T330 662Q346 662 359 675T376 715H416Q410 667 386 642T330 616Z" />
<glyph unicode="&#xe4;" glyph-name="adieresis" horiz-adv-x="533" d="M221 -8Q182 -8 150 1T94 29T57 76T44 141Q44 186 64 216T118 265T196 291T289 299H398V346Q398 420 367 453T266 486Q206 486 167 460T119 375H67Q71 416 89 445T135 494T196 522T268 531Q309
531 342 521T400 489T437 431T451 346V0H398V80Q373 42 330 17T221 -8ZM225 35Q261 35 292 45T347 73T384 115T398 169V258H291Q250 258 215 253T153 235T112 199T97 141Q97 90 128 63T225 35ZM185 636Q169 636 159 647T148 673Q148 688 158 698T185 709Q200 709
210 699T221 673Q221 658 211 647T185 636ZM351 636Q336 636 326 647T315 673Q315 688 325 698T351 709Q367 709 377 699T388 673Q388 658 378 647T351 636Z" />
<glyph unicode="&#xe5;" glyph-name="aring" horiz-adv-x="533" d="M221 -8Q182 -8 150 1T94 29T57 76T44 141Q44 186 64 216T118 265T196 291T289 299H398V346Q398 420 367 453T266 486Q206 486 167 460T119 375H67Q71 416 89 445T135 494T196 522T268 531Q309
531 342 521T400 489T437 431T451 346V0H398V80Q373 42 330 17T221 -8ZM225 35Q261 35 292 45T347 73T384 115T398 169V258H291Q250 258 215 253T153 235T112 199T97 141Q97 90 128 63T225 35ZM268 633Q294 633 311 651T329 696Q329 724 312 742T268 760Q242 760
225 742T207 696Q207 669 224 651T268 633ZM268 601Q248 601 231 608T200 629T178 659T170 696Q170 715 178 732T199 763T230 784T268 792Q288 792 306 785T337 764T358 733T366 696Q366 676 359 659T338 629T306 609T268 601Z" />
<glyph unicode="&#xe6;" glyph-name="ae" horiz-adv-x="901" d="M638 -8Q563 -8 510 27T429 123Q403 57 349 25T221 -8Q182 -8 150 1T94 28T57 75T44 140Q44 186 64 216T117 265T195 291T287 299H400V345Q400 419 368 452T266 486Q206 486 167 460T119 375H67Q71
416 89 445T135 494T197 522T268 531Q333 531 377 505T439 417Q468 471 517 501T632 531Q678 531 718 516T789 469T837 389T855 276V258H452Q454 152 500 95T639 37Q703 37 744 64T798 146H851Q835 71 778 32T638 -8ZM226 35Q262 35 293 45T348 74T386 120T400
181V258H288Q247 258 212 253T152 235T112 198T97 140Q97 89 128 62T226 35ZM801 299Q797 396 752 441T632 486Q557 486 509 436T453 299H801Z" />
<glyph unicode="&#xe7;" glyph-name="ccedilla" horiz-adv-x="560" d="M274 -212Q233 -212 208 -191T178 -134H222Q225 -151 237 -163T272 -176Q295 -176 308 -164T322 -132Q322 -110 308 -102T277 -93Q264 -93 255 -96T241 -101L215 -80L257 -5Q211 1 172 22T104
77T59 156T43 256V264Q43 324 62 373T116 457T195 512T293 531Q333 531 370 521T436 489T486 434T511 357H459Q454 390 439 414T402 454T352 478T293 486Q252 486 217 471T155 427T113 357T98 264V256Q98 204 113 164T154 95T216 52T293 37Q326 37 355 46T407 74T446
119T467 181H516Q511 139 493 105T446 46T380 7T298 -8L268 -61Q286 -57 304 -59T337 -71T360 -95T369 -134Q369 -172 341 -192T274 -212Z" />
<glyph unicode="&#xe8;" glyph-name="egrave" horiz-adv-x="558" d="M291 -8Q234 -8 189 11T111 65T61 148T43 256V264Q43 323 61 372T110 456T186 511T283 531Q330 531 372 516T445 469T494 389T512 276V257H98Q100 151 148 94T291 37Q357 37 399 64T455 146H508Q491
71 434 32T291 -8ZM457 300Q453 396 407 441T283 486Q245 486 213 473T157 436T119 378T100 300H457ZM175 752H240L308 605H267L175 752Z" />
<glyph unicode="&#xe9;" glyph-name="eacute" horiz-adv-x="558" d="M291 -8Q234 -8 189 11T111 65T61 148T43 256V264Q43 323 61 372T110 456T186 511T283 531Q330 531 372 516T445 469T494 389T512 276V257H98Q100 151 148 94T291 37Q357 37 399 64T455 146H508Q491
71 434 32T291 -8ZM457 300Q453 396 407 441T283 486Q245 486 213 473T157 436T119 378T100 300H457ZM322 752H387L295 605H254L322 752Z" />
<glyph unicode="&#xea;" glyph-name="ecircumflex" horiz-adv-x="558" d="M291 -8Q234 -8 189 11T111 65T61 148T43 256V264Q43 323 61 372T110 456T186 511T283 531Q330 531 372 516T445 469T494 389T512 276V257H98Q100 151 148 94T291 37Q357 37 399 64T455
146H508Q491 71 434 32T291 -8ZM457 300Q453 396 407 441T283 486Q245 486 213 473T157 436T119 378T100 300H457ZM258 740H308L416 605H374L282 695L189 605H148L258 740Z" />
<glyph unicode="&#xeb;" glyph-name="edieresis" horiz-adv-x="558" d="M291 -8Q234 -8 189 11T111 65T61 148T43 256V264Q43 323 61 372T110 456T186 511T283 531Q330 531 372 516T445 469T494 389T512 276V257H98Q100 151 148 94T291 37Q357 37 399 64T455 146H508Q491
71 434 32T291 -8ZM457 300Q453 396 407 441T283 486Q245 486 213 473T157 436T119 378T100 300H457ZM199 636Q183 636 173 647T162 673Q162 688 172 698T199 709Q214 709 224 699T235 673Q235 658 225 647T199 636ZM365 636Q350 636 340 647T329 673Q329 688 339
698T365 709Q381 709 391 699T402 673Q402 658 392 647T365 636Z" />
<glyph unicode="&#xec;" glyph-name="igrave" horiz-adv-x="225" d="M84 523H137V0H84V523ZM258 752H323L391 605H350L258 752Z" />
<glyph unicode="&#xed;" glyph-name="iacute" horiz-adv-x="225" d="M84 523H137V0H84V523ZM411 752H476L384 605H343L411 752Z" />
<glyph unicode="&#xee;" glyph-name="icircumflex" horiz-adv-x="225" d="M84 523H137V0H84V523ZM344 740H394L502 605H460L368 695L275 605H234L344 740Z" />
<glyph unicode="&#xef;" glyph-name="idieresis" horiz-adv-x="225" d="M36 636Q21 636 11 647T0 673Q0 688 10 698T36 709Q51 709 62 699T73 673Q73 658 62 647T36 636ZM185 636Q170 636 159 647T148 673Q148 688 159 698T185 709Q200 709 210 699T221 673Q221
658 211 647T185 636ZM84 523H137V0H84V523Z" />
<glyph unicode="&#xf0;" glyph-name="eth" horiz-adv-x="598" d="M140 615L261 685Q232 709 201 731T137 773H208Q230 761 254 746T304 710L402 768L421 735L334 685Q374 650 412 607T481 513T529 403T548 278V260Q548 201 529 152T475 67T394 12T295 -8Q242 -8
196 11T116 66T63 150T43 257V265Q43 324 62 373T115 457T191 511T282 531Q348 531 390 505T462 440Q434 501 390 556T291 660L159 584L140 615ZM295 37Q337 37 373 52T436 96T478 166T493 258V271Q493 320 478 360T437 428T373 471T293 486Q252 486 217 471T155
427T113 357T98 265V257Q98 207 113 166T154 97T216 53T295 37Z" />
<glyph unicode="&#xf1;" glyph-name="ntilde" horiz-adv-x="587" d="M82 523H135V421Q144 442 161 462T201 497T255 522T320 531Q362 531 396 520T454 483T492 418T506 322V0H453V325Q453 409 416 447T308 485Q275 485 244 474T189 442T150 390T135 317V0H82V523ZM352
616Q334 616 318 624T286 642T256 660T228 669Q212 669 200 655T183 616H142Q148 664 172 689T229 715Q247 715 263 707T295 689T324 671T352 662Q368 662 381 675T398 715H438Q432 667 408 642T352 616Z" />
<glyph unicode="&#xf2;" glyph-name="ograve" horiz-adv-x="595" d="M296 37Q338 37 374 52T436 96T478 165T493 257V265Q493 317 478 358T437 427T374 471T296 486Q254 486 218 471T155 427T113 357T98 265V257Q98 207 113 166T154 97T217 53T296 37ZM295 -8Q242
-8 196 11T116 66T63 150T43 257V265Q43 324 63 373T117 457T197 511T296 531Q349 531 395 512T475 458T528 375T548 266V258Q548 199 529 150T475 66T394 12T295 -8ZM188 752H253L321 605H280L188 752Z" />
<glyph unicode="&#xf3;" glyph-name="oacute" horiz-adv-x="595" d="M296 37Q338 37 374 52T436 96T478 165T493 257V265Q493 317 478 358T437 427T374 471T296 486Q254 486 218 471T155 427T113 357T98 265V257Q98 207 113 166T154 97T217 53T296 37ZM295 -8Q242
-8 196 11T116 66T63 150T43 257V265Q43 324 63 373T117 457T197 511T296 531Q349 531 395 512T475 458T528 375T548 266V258Q548 199 529 150T475 66T394 12T295 -8ZM335 752H400L308 605H267L335 752Z" />
<glyph unicode="&#xf4;" glyph-name="ocircumflex" horiz-adv-x="595" d="M296 37Q338 37 374 52T436 96T478 165T493 257V265Q493 317 478 358T437 427T374 471T296 486Q254 486 218 471T155 427T113 357T98 265V257Q98 207 113 166T154 97T217 53T296 37ZM295
-8Q242 -8 196 11T116 66T63 150T43 257V265Q43 324 63 373T117 457T197 511T296 531Q349 531 395 512T475 458T528 375T548 266V258Q548 199 529 150T475 66T394 12T295 -8ZM271 740H321L429 605H387L295 695L202 605H161L271 740Z" />
<glyph unicode="&#xf5;" glyph-name="otilde" horiz-adv-x="595" d="M296 37Q338 37 374 52T436 96T478 165T493 257V265Q493 317 478 358T437 427T374 471T296 486Q254 486 218 471T155 427T113 357T98 265V257Q98 207 113 166T154 97T217 53T296 37ZM295 -8Q242
-8 196 11T116 66T63 150T43 257V265Q43 324 63 373T117 457T197 511T296 531Q349 531 395 512T475 458T528 375T548 266V258Q548 199 529 150T475 66T394 12T295 -8ZM357 616Q339 616 323 624T291 642T261 660T233 669Q217 669 205 655T188 616H147Q153 664 177
689T234 715Q252 715 268 707T300 689T329 671T357 662Q373 662 386 675T403 715H443Q437 667 413 642T357 616Z" />
<glyph unicode="&#xf6;" glyph-name="odieresis" horiz-adv-x="595" d="M296 37Q338 37 374 52T436 96T478 165T493 257V265Q493 317 478 358T437 427T374 471T296 486Q254 486 218 471T155 427T113 357T98 265V257Q98 207 113 166T154 97T217 53T296 37ZM295
-8Q242 -8 196 11T116 66T63 150T43 257V265Q43 324 63 373T117 457T197 511T296 531Q349 531 395 512T475 458T528 375T548 266V258Q548 199 529 150T475 66T394 12T295 -8ZM212 636Q196 636 186 647T175 673Q175 688 185 698T212 709Q227 709 237 699T248 673Q248
658 238 647T212 636ZM378 636Q363 636 353 647T342 673Q342 688 352 698T378 709Q394 709 404 699T415 673Q415 658 405 647T378 636Z" />
<glyph unicode="&#xf7;" glyph-name="divide" horiz-adv-x="514" d="M255 122Q237 122 225 134T212 165Q212 182 224 194T255 207Q272 207 284 195T297 165Q297 147 285 135T255 122ZM36 365H474V319H36V365ZM255 477Q237 477 225 489T212 520Q212 537 224 549T255
562Q272 562 284 550T297 520Q297 502 285 490T255 477Z" />
<glyph unicode="&#xf8;" glyph-name="oslash" horiz-adv-x="595" d="M31 0L103 80Q74 115 59 159T43 257V265Q43 324 63 373T117 457T197 511T296 531Q343 531 384 516T458 473L522 545L551 520L485 447Q514 412 531 367T548 266V258Q548 199 529 150T475 66T394
12T295 -8Q247 -8 205 7T130 52L61 -25L31 0ZM296 37Q338 37 374 52T436 96T478 165T493 257V265Q493 309 482 345T451 409L162 88Q216 37 296 37ZM98 257Q98 174 137 118L425 437Q373 486 296 486Q254 486 218 471T155 427T113 357T98 265V257Z" />
<glyph unicode="&#xf9;" glyph-name="ugrave" horiz-adv-x="583" d="M261 -8Q220 -8 187 3T129 38T91 100T77 192V523H130V195Q130 111 167 75T273 38Q305 38 335 48T390 80T429 132T444 205V523H497V0H444V100Q435 79 418 60T378 25T325 1T261 -8ZM182 752H247L315
605H274L182 752Z" />
<glyph unicode="&#xfa;" glyph-name="uacute" horiz-adv-x="583" d="M261 -8Q220 -8 187 3T129 38T91 100T77 192V523H130V195Q130 111 167 75T273 38Q305 38 335 48T390 80T429 132T444 205V523H497V0H444V100Q435 79 418 60T378 25T325 1T261 -8ZM329 752H394L302
605H261L329 752Z" />
<glyph unicode="&#xfb;" glyph-name="ucircumflex" horiz-adv-x="583" d="M261 -8Q220 -8 187 3T129 38T91 100T77 192V523H130V195Q130 111 167 75T273 38Q305 38 335 48T390 80T429 132T444 205V523H497V0H444V100Q435 79 418 60T378 25T325 1T261 -8ZM265 740H315L423
605H381L289 695L196 605H155L265 740Z" />
<glyph unicode="&#xfc;" glyph-name="udieresis" horiz-adv-x="583" d="M261 -8Q220 -8 187 3T129 38T91 100T77 192V523H130V195Q130 111 167 75T273 38Q305 38 335 48T390 80T429 132T444 205V523H497V0H444V100Q435 79 418 60T378 25T325 1T261 -8ZM206 636Q190
636 180 647T169 673Q169 688 179 698T206 709Q221 709 231 699T242 673Q242 658 232 647T206 636ZM372 636Q357 636 347 647T336 673Q336 688 346 698T372 709Q388 709 398 699T409 673Q409 658 399 647T372 636Z" />
<glyph unicode="&#xfd;" glyph-name="yacute" d="M232 45L25 523H82L261 106L428 523H482L192 -182H137L232 45ZM297 752H362L270 605H229L297 752Z" />
<glyph unicode="&#xfe;" glyph-name="thorn" horiz-adv-x="616" d="M82 773H135V401Q147 427 166 450T212 492T269 520T335 531Q384 531 427 513T501 460T551 377T569 267V259Q569 197 552 148T503 64T428 11T334 -8Q295 -8 263 3T206 31T163 72T135 119V-182H82V773ZM330
37Q413 37 463 94T514 257V265Q514 319 500 360T460 429T401 471T330 486Q291 486 256 472T193 430T150 361T134 265V257Q134 203 149 162T191 94T253 52T330 37Z" />
<glyph unicode="&#xff;" glyph-name="ydieresis" d="M232 45L25 523H82L261 106L428 523H482L192 -182H137L232 45ZM176 636Q160 636 150 647T139 673Q139 688 149 698T176 709Q191 709 201 699T212 673Q212 658 202 647T176 636ZM342 636Q327 636 317 647T306
673Q306 688 316 698T342 709Q358 709 368 699T379 673Q379 658 369 647T342 636Z" />
<glyph unicode="&#x100;" glyph-name="Amacron" horiz-adv-x="658" d="M290 715H364L621 0H565L486 219H164L86 0H33L290 715ZM180 264H470L325 669L180 264ZM199 833H447V791H199V833Z" />
<glyph unicode="&#x101;" glyph-name="amacron" horiz-adv-x="533" d="M221 -8Q182 -8 150 1T94 29T57 76T44 141Q44 186 64 216T118 265T196 291T289 299H398V346Q398 420 367 453T266 486Q206 486 167 460T119 375H67Q71 416 89 445T135 494T196 522T268 531Q309
531 342 521T400 489T437 431T451 346V0H398V80Q373 42 330 17T221 -8ZM225 35Q261 35 292 45T347 73T384 115T398 169V258H291Q250 258 215 253T153 235T112 199T97 141Q97 90 128 63T225 35ZM147 689H389V647H147V689Z" />
<glyph unicode="&#x102;" glyph-name="Abreve" horiz-adv-x="658" d="M290 715H364L621 0H565L486 219H164L86 0H33L290 715ZM180 264H470L325 669L180 264ZM321 771Q295 771 273 780T234 805T207 844T195 893H239Q243 858 264 837T321 815Q356 815 379 836T407
893H450Q448 867 438 845T410 806T369 780T321 771Z" />
<glyph unicode="&#x103;" glyph-name="abreve" horiz-adv-x="533" d="M221 -8Q182 -8 150 1T94 29T57 76T44 141Q44 186 64 216T118 265T196 291T289 299H398V346Q398 420 367 453T266 486Q206 486 167 460T119 375H67Q71 416 89 445T135 494T196 522T268 531Q309
531 342 521T400 489T437 431T451 346V0H398V80Q373 42 330 17T221 -8ZM225 35Q261 35 292 45T347 73T384 115T398 169V258H291Q250 258 215 253T153 235T112 199T97 141Q97 90 128 63T225 35ZM266 616Q215 616 181 649T144 737H188Q192 702 211 681T266 660Q301
660 322 681T349 737H391Q388 683 353 650T266 616Z" />
<glyph unicode="&#x104;" glyph-name="Aogonek" horiz-adv-x="658" d="M581 -182Q537 -182 513 -162T488 -107Q488 -74 510 -47T565 0L486 219H164L86 0H33L290 715H364L620 2Q578 -24 559 -47T539 -98Q539 -118 551 -130T588 -142Q616 -142 639 -132V-171Q627
-176 613 -179T581 -182ZM180 264H470L325 669L180 264Z" />
<glyph unicode="&#x105;" glyph-name="aogonek" horiz-adv-x="533" d="M413 -182Q369 -182 345 -162T320 -107Q320 -72 343 -44T398 1V80Q373 42 330 17T221 -8Q182 -8 150 1T94 29T57 76T44 141Q44 186 64 216T118 265T196 291T289 299H398V346Q398 420 367 453T266
486Q206 486 167 460T119 375H67Q71 416 89 445T135 494T196 522T268 531Q309 531 342 521T400 489T437 431T451 346V2Q371 -46 371 -98Q371 -118 383 -130T420 -142Q433 -142 446 -140T470 -132V-171Q459 -176 445 -179T413 -182ZM225 35Q261 35 292 45T347 73T384
115T398 169V258H291Q250 258 215 253T153 235T112 199T97 141Q97 90 128 63T225 35Z" />
<glyph unicode="&#x106;" glyph-name="Cacute" horiz-adv-x="729" d="M385 -8Q308 -8 247 18T143 91T76 205T53 353V361Q53 440 78 506T149 621T254 697T385 724Q440 724 489 710T576 667T640 597T674 500H618Q601 587 544 633T386 679Q326 679 276 656T188 592T131
492T110 362V354Q110 282 129 224T184 124T271 61T386 39Q483 39 548 88T630 230H682Q672 172 646 128T582 53T493 8T385 -8ZM423 893H489L401 771H359L423 893Z" />
<glyph unicode="&#x107;" glyph-name="cacute" horiz-adv-x="560" d="M293 -8Q240 -8 195 11T115 64T62 147T43 256V264Q43 324 62 373T116 457T195 512T293 531Q333 531 370 521T436 489T486 434T511 357H459Q454 390 439 414T402 454T352 478T293 486Q252 486
217 471T155 427T113 357T98 264V256Q98 204 113 164T154 95T216 52T293 37Q326 37 355 46T407 74T446 119T467 181H516Q511 139 492 104T444 45T377 6T293 -8ZM329 752H394L302 605H261L329 752Z" />
<glyph unicode="&#x108;" glyph-name="Ccircumflex" horiz-adv-x="729" d="M385 -8Q308 -8 247 18T143 91T76 205T53 353V361Q53 440 78 506T149 621T254 697T385 724Q440 724 489 710T576 667T640 597T674 500H618Q601 587 544 633T386 679Q326 679 276 656T188
592T131 492T110 362V354Q110 282 129 224T184 124T271 61T386 39Q483 39 548 88T630 230H682Q672 172 646 128T582 53T493 8T385 -8ZM363 893H413L521 771H479L387 849L294 771H253L363 893Z" />
<glyph unicode="&#x109;" glyph-name="ccircumflex" horiz-adv-x="560" d="M293 -8Q240 -8 195 11T115 64T62 147T43 256V264Q43 324 62 373T116 457T195 512T293 531Q333 531 370 521T436 489T486 434T511 357H459Q454 390 439 414T402 454T352 478T293 486Q252
486 217 471T155 427T113 357T98 264V256Q98 204 113 164T154 95T216 52T293 37Q326 37 355 46T407 74T446 119T467 181H516Q511 139 492 104T444 45T377 6T293 -8ZM265 740H315L423 605H381L289 695L196 605H155L265 740Z" />
<glyph unicode="&#x10a;" glyph-name="Cdotaccent" horiz-adv-x="729" d="M385 -8Q308 -8 247 18T143 91T76 205T53 353V361Q53 440 78 506T149 621T254 697T385 724Q440 724 489 710T576 667T640 597T674 500H618Q601 587 544 633T386 679Q326 679 276 656T188
592T131 492T110 362V354Q110 282 129 224T184 124T271 61T386 39Q483 39 548 88T630 230H682Q672 172 646 128T582 53T493 8T385 -8ZM384 787Q368 787 357 798T346 825Q346 840 357 851T384 862Q400 862 411 851T422 825Q422 809 411 798T384 787Z" />
<glyph unicode="&#x10b;" glyph-name="cdotaccent" horiz-adv-x="560" d="M293 -8Q240 -8 195 11T115 64T62 147T43 256V264Q43 324 62 373T116 457T195 512T293 531Q333 531 370 521T436 489T486 434T511 357H459Q454 390 439 414T402 454T352 478T293 486Q252
486 217 471T155 427T113 357T98 264V256Q98 204 113 164T154 95T216 52T293 37Q326 37 355 46T407 74T446 119T467 181H516Q511 139 492 104T444 45T377 6T293 -8ZM289 635Q273 635 262 646T251 673Q251 688 262 699T289 710Q305 710 316 699T327 673Q327 657
316 646T289 635Z" />
<glyph unicode="&#x10c;" glyph-name="Ccaron" horiz-adv-x="729" d="M385 -8Q308 -8 247 18T143 91T76 205T53 353V361Q53 440 78 506T149 621T254 697T385 724Q440 724 489 710T576 667T640 597T674 500H618Q601 587 544 633T386 679Q326 679 276 656T188 592T131
492T110 362V354Q110 282 129 224T184 124T271 61T386 39Q483 39 548 88T630 230H682Q672 172 646 128T582 53T493 8T385 -8ZM252 893H294L387 816L481 893H522L411 771H361L252 893Z" />
<glyph unicode="&#x10d;" glyph-name="ccaron" horiz-adv-x="560" d="M293 -8Q240 -8 195 11T115 64T62 147T43 256V264Q43 324 62 373T116 457T195 512T293 531Q333 531 370 521T436 489T486 434T511 357H459Q454 390 439 414T402 454T352 478T293 486Q252 486
217 471T155 427T113 357T98 264V256Q98 204 113 164T154 95T216 52T293 37Q326 37 355 46T407 74T446 119T467 181H516Q511 139 492 104T444 45T377 6T293 -8ZM155 748H197L289 658L382 748H423L313 613H263L155 748Z" />
<glyph unicode="&#x10e;" glyph-name="Dcaron" horiz-adv-x="690" d="M274 46Q350 46 407 69T501 133T557 231T576 356V364Q576 430 558 486T503 582T409 646T273 669H148V46H274ZM92 715H278Q366 715 433 688T544 614T611 503T634 364V355Q634 281 613 216T547
103T435 28T276 0H92V715ZM179 893H221L314 816L408 893H449L338 771H288L179 893Z" />
<glyph unicode="&#x10f;" glyph-name="dcaron" horiz-adv-x="616" d="M278 -8Q228 -8 185 9T111 60T61 143T43 254V262Q43 322 61 372T112 457T189 511T286 531Q325 531 355 521T409 494T449 454T477 407V773H530V0H477V121Q466 97 448 74T404 33T347 4T278 -8ZM283
37Q323 37 358 51T420 93T462 162T478 258V266Q478 320 464 361T426 430T367 472T291 486Q249 486 214 471T153 428T113 358T98 264V256Q98 202 112 162T151 93T210 51T283 37ZM597 773H657L624 611H585L597 773Z" />
<glyph unicode="&#x110;" glyph-name="Dcroat" horiz-adv-x="701" d="M28 381H103V715H288Q377 715 443 688T554 614T621 503T644 364V355Q644 281 623 216T557 103T446 28T286 0H103V337H28V381ZM284 46Q360 46 417 69T512 133T568 231T587 356V364Q587 430 569
486T514 582T420 646T283 669H159V381H367V337H159V46H284Z" />
<glyph unicode="&#x111;" glyph-name="dcroat" horiz-adv-x="616" d="M288 664H477V773H530V664H607V623H530V0H477V121Q466 97 448 74T404 33T347 4T278 -8Q228 -8 185 9T111 60T61 143T43 254V262Q43 322 61 372T112 457T189 511T286 531Q325 531 355 521T409
494T449 454T477 407V623H288V664ZM283 37Q323 37 358 51T420 93T462 162T478 258V266Q478 320 464 361T426 430T367 472T291 486Q249 486 214 471T153 428T113 358T98 264V256Q98 202 112 162T151 93T210 51T283 37Z" />
<glyph unicode="&#x112;" glyph-name="Emacron" horiz-adv-x="570" d="M92 715H503V669H148V390H436V344H148V46H521V0H92V715ZM175 833H423V791H175V833Z" />
<glyph unicode="&#x113;" glyph-name="emacron" horiz-adv-x="558" d="M291 -8Q234 -8 189 11T111 65T61 148T43 256V264Q43 323 61 372T110 456T186 511T283 531Q330 531 372 516T445 469T494 389T512 276V257H98Q100 151 148 94T291 37Q357 37 399 64T455 146H508Q491
71 434 32T291 -8ZM457 300Q453 396 407 441T283 486Q245 486 213 473T157 436T119 378T100 300H457ZM161 689H403V647H161V689Z" />
<glyph unicode="&#x114;" glyph-name="Ebreve" horiz-adv-x="570" d="M92 715H503V669H148V390H436V344H148V46H521V0H92V715ZM301 771Q275 771 253 780T214 805T187 844T175 893H219Q223 858 244 837T301 815Q336 815 359 836T387 893H430Q428 867 418 845T390
806T349 780T301 771Z" />
<glyph unicode="&#x115;" glyph-name="ebreve" horiz-adv-x="558" d="M291 -8Q234 -8 189 11T111 65T61 148T43 256V264Q43 323 61 372T110 456T186 511T283 531Q330 531 372 516T445 469T494 389T512 276V257H98Q100 151 148 94T291 37Q357 37 399 64T455 146H508Q491
71 434 32T291 -8ZM457 300Q453 396 407 441T283 486Q245 486 213 473T157 436T119 378T100 300H457ZM276 616Q225 616 191 649T154 737H198Q202 702 221 681T276 660Q311 660 332 681T359 737H401Q398 683 363 650T276 616Z" />
<glyph unicode="&#x116;" glyph-name="Edotaccent" horiz-adv-x="570" d="M92 715H503V669H148V390H436V344H148V46H521V0H92V715ZM299 787Q283 787 272 798T261 825Q261 840 272 851T299 862Q315 862 326 851T337 825Q337 809 326 798T299 787Z" />
<glyph unicode="&#x117;" glyph-name="edotaccent" horiz-adv-x="558" d="M291 -8Q234 -8 189 11T111 65T61 148T43 256V264Q43 323 61 372T110 456T186 511T283 531Q330 531 372 516T445 469T494 389T512 276V257H98Q100 151 148 94T291 37Q357 37 399 64T455
146H508Q491 71 434 32T291 -8ZM457 300Q453 396 407 441T283 486Q245 486 213 473T157 436T119 378T100 300H457ZM282 635Q266 635 255 646T244 673Q244 688 255 699T282 710Q298 710 309 699T320 673Q320 657 309 646T282 635Z" />
<glyph unicode="&#x118;" glyph-name="Eogonek" horiz-adv-x="570" d="M437 -182Q393 -182 368 -162T343 -107Q343 -74 366 -46T421 0H92V715H503V669H148V390H436V344H148V46H521V0H470Q433 -24 414 -47T395 -98Q395 -118 406 -130T444 -142Q471 -142 494 -132V-171Q483
-176 469 -179T437 -182Z" />
<glyph unicode="&#x119;" glyph-name="eogonek" horiz-adv-x="558" d="M374 -182Q330 -182 306 -162T281 -107Q281 -75 303 -47T358 1Q325 -8 291 -8Q234 -8 189 11T111 65T61 148T43 256V264Q43 323 61 372T110 456T186 511T283 531Q330 531 372 516T445 469T494
389T512 276V257H98Q100 151 148 94T291 37Q357 37 399 64T455 146H508Q497 97 473 69T428 23Q411 9 394 -5T364 -33T341 -64T332 -98Q332 -118 344 -130T381 -142Q394 -142 407 -140T431 -132V-171Q420 -176 406 -179T374 -182ZM457 300Q453 396 407 441T283 486Q245
486 213 473T157 436T119 378T100 300H457Z" />
<glyph unicode="&#x11a;" glyph-name="Ecaron" horiz-adv-x="570" d="M92 715H503V669H148V390H436V344H148V46H521V0H92V715ZM166 893H208L301 816L395 893H436L325 771H275L166 893Z" />
<glyph unicode="&#x11b;" glyph-name="ecaron" horiz-adv-x="558" d="M291 -8Q234 -8 189 11T111 65T61 148T43 256V264Q43 323 61 372T110 456T186 511T283 531Q330 531 372 516T445 469T494 389T512 276V257H98Q100 151 148 94T291 37Q357 37 399 64T455 146H508Q491
71 434 32T291 -8ZM457 300Q453 396 407 441T283 486Q245 486 213 473T157 436T119 378T100 300H457ZM148 748H190L282 658L375 748H416L306 613H256L148 748Z" />
<glyph unicode="&#x11c;" glyph-name="Gcircumflex" horiz-adv-x="760" d="M396 -8Q315 -8 252 19T144 94T77 208T53 353V361Q53 439 78 505T150 620T258 696T394 724Q445 724 492 712T578 673T644 607T681 511H625Q605 600 543 639T395 679Q330 679 278 656T188
590T131 490T110 362V354Q110 283 129 225T184 125T273 61T396 38Q459 38 506 56T584 109T632 191T649 298V302H429V349H703V308Q703 231 681 172T619 73T522 13T396 -8ZM366 893H416L524 771H482L390 849L297 771H256L366 893Z" />
<glyph unicode="&#x11d;" glyph-name="gcircumflex" horiz-adv-x="616" d="M288 -188Q231 -188 190 -175T120 -141T75 -91T54 -30H108Q119 -81 162 -112T287 -143Q329 -143 364 -133T424 -102T463 -46T477 37V144Q466 120 448 98T404 57T347 28T279 17Q229 17
186 34T111 85T61 164T43 267V274Q43 330 61 377T112 458T189 512T286 531Q325 531 355 521T409 495T449 456T477 410V523H530V35Q530 -23 512 -65T461 -134T385 -175T288 -188ZM284 62Q324 62 359 76T420 117T462 182T478 270V278Q478 327 464 366T426 431T367
472T291 486Q249 486 214 472T153 430T113 364T98 276V268Q98 219 112 181T152 117T211 76T284 62ZM265 740H315L423 605H381L289 695L196 605H155L265 740Z" />
<glyph unicode="&#x11e;" glyph-name="Gbreve" horiz-adv-x="760" d="M396 -8Q315 -8 252 19T144 94T77 208T53 353V361Q53 439 78 505T150 620T258 696T394 724Q445 724 492 712T578 673T644 607T681 511H625Q605 600 543 639T395 679Q330 679 278 656T188 590T131
490T110 362V354Q110 283 129 225T184 125T273 61T396 38Q459 38 506 56T584 109T632 191T649 298V302H429V349H703V308Q703 231 681 172T619 73T522 13T396 -8ZM388 771Q362 771 340 780T301 805T274 844T262 893H306Q310 858 331 837T388 815Q423 815 446 836T474
893H517Q515 867 505 845T477 806T436 780T388 771Z" />
<glyph unicode="&#x11f;" glyph-name="gbreve" horiz-adv-x="616" d="M288 -188Q231 -188 190 -175T120 -141T75 -91T54 -30H108Q119 -81 162 -112T287 -143Q329 -143 364 -133T424 -102T463 -46T477 37V144Q466 120 448 98T404 57T347 28T279 17Q229 17 186 34T111
85T61 164T43 267V274Q43 330 61 377T112 458T189 512T286 531Q325 531 355 521T409 495T449 456T477 410V523H530V35Q530 -23 512 -65T461 -134T385 -175T288 -188ZM284 62Q324 62 359 76T420 117T462 182T478 270V278Q478 327 464 366T426 431T367 472T291 486Q249
486 214 472T153 430T113 364T98 276V268Q98 219 112 181T152 117T211 76T284 62ZM288 616Q237 616 203 649T166 737H210Q214 702 233 681T288 660Q323 660 344 681T371 737H413Q410 683 375 650T288 616Z" />
<glyph unicode="&#x120;" glyph-name="Gdotaccent" horiz-adv-x="760" d="M396 -8Q315 -8 252 19T144 94T77 208T53 353V361Q53 439 78 505T150 620T258 696T394 724Q445 724 492 712T578 673T644 607T681 511H625Q605 600 543 639T395 679Q330 679 278 656T188
590T131 490T110 362V354Q110 283 129 225T184 125T273 61T396 38Q459 38 506 56T584 109T632 191T649 298V302H429V349H703V308Q703 231 681 172T619 73T522 13T396 -8ZM390 787Q374 787 363 798T352 825Q352 840 363 851T390 862Q406 862 417 851T428 825Q428
809 417 798T390 787Z" />
<glyph unicode="&#x121;" glyph-name="gdotaccent" horiz-adv-x="616" d="M288 -188Q231 -188 190 -175T120 -141T75 -91T54 -30H108Q119 -81 162 -112T287 -143Q329 -143 364 -133T424 -102T463 -46T477 37V144Q466 120 448 98T404 57T347 28T279 17Q229 17 186
34T111 85T61 164T43 267V274Q43 330 61 377T112 458T189 512T286 531Q325 531 355 521T409 495T449 456T477 410V523H530V35Q530 -23 512 -65T461 -134T385 -175T288 -188ZM284 62Q324 62 359 76T420 117T462 182T478 270V278Q478 327 464 366T426 431T367 472T291
486Q249 486 214 472T153 430T113 364T98 276V268Q98 219 112 181T152 117T211 76T284 62ZM289 635Q273 635 262 646T251 673Q251 688 262 699T289 710Q305 710 316 699T327 673Q327 657 316 646T289 635Z" />
<glyph unicode="&#x122;" glyph-name="Gcommaaccent" horiz-adv-x="760" d="M396 -8Q315 -8 252 19T144 94T77 208T53 353V361Q53 439 78 505T150 620T258 696T394 724Q445 724 492 712T578 673T644 607T681 511H625Q605 600 543 639T395 679Q330 679 278 656T188
590T131 490T110 362V354Q110 283 129 225T184 125T273 61T396 38Q459 38 506 56T584 109T632 191T649 298V302H429V349H703V308Q703 231 681 172T619 73T522 13T396 -8ZM318 -188L376 -41L427 -56L352 -204L318 -188Z" />
<glyph unicode="&#x123;" glyph-name="gcommaaccent" horiz-adv-x="616" d="M288 -188Q231 -188 190 -175T120 -141T75 -91T54 -30H108Q119 -81 162 -112T287 -143Q329 -143 364 -133T424 -102T463 -46T477 37V144Q466 120 448 98T404 57T347 28T279 17Q229 17
186 34T111 85T61 164T43 267V274Q43 330 61 377T112 458T189 512T286 531Q325 531 355 521T409 495T449 456T477 410V523H530V35Q530 -23 512 -65T461 -134T385 -175T288 -188ZM284 62Q324 62 359 76T420 117T462 182T478 270V278Q478 327 464 366T426 431T367
472T291 486Q249 486 214 472T153 430T113 364T98 276V268Q98 219 112 181T152 117T211 76T284 62ZM260 622L335 770L370 753L312 607L260 622Z" />
<glyph unicode="&#x124;" glyph-name="Hcircumflex" horiz-adv-x="721" d="M92 715H148V382H569V715H625V0H569V335H148V0H92V715ZM334 893H384L492 771H450L358 849L265 771H224L334 893Z" />
<glyph unicode="&#x125;" glyph-name="hcircumflex" horiz-adv-x="587" d="M82 773H135V421Q144 442 161 462T201 497T255 522T320 531Q362 531 396 520T454 483T492 418T506 322V0H453V325Q453 409 416 447T308 485Q275 485 244 474T189 442T150 390T135 317V0H82V773ZM276
938H326L434 816H392L300 894L207 816H166L276 938Z" />
<glyph unicode="&#x126;" glyph-name="Hbar" horiz-adv-x="721" d="M13 554H92V715H148V554H569V715H625V554H704V510H625V0H569V335H148V0H92V510H13V554ZM569 382V510H148V382H569Z" />
<glyph unicode="&#x127;" glyph-name="hbar" horiz-adv-x="587" d="M4 664H82V773H135V664H324V623H135V421Q144 442 161 462T201 497T255 522T320 531Q362 531 396 520T454 483T492 418T506 322V0H453V325Q453 409 416 447T308 485Q275 485 244 474T189 442T150
390T135 317V0H82V623H4V664Z" />
<glyph unicode="&#x128;" glyph-name="Itilde" horiz-adv-x="254" d="M97 715H153V0H97V715ZM445 774Q427 774 411 782T379 800T349 818T322 827Q305 827 293 813T276 773H235Q241 821 265 846T322 872Q340 872 356 864T387 846T417 828T445 819Q462 819 474 833T491
873H531Q525 825 501 800T445 774Z" />
<glyph unicode="&#x129;" glyph-name="itilde" horiz-adv-x="225" d="M84 523H137V0H84V523ZM431 616Q413 616 397 624T365 642T335 660T307 669Q291 669 279 655T262 616H221Q227 664 251 689T308 715Q326 715 342 707T374 689T403 671T431 662Q447 662 460 675T477
715H517Q511 667 487 642T431 616Z" />
<glyph unicode="&#x12a;" glyph-name="Imacron" horiz-adv-x="254" d="M97 715H153V0H97V715ZM258 833H506V791H258V833Z" />
<glyph unicode="&#x12b;" glyph-name="imacron" horiz-adv-x="225" d="M24 689H197V647H24V689ZM84 523H137V0H84V523Z" />
<glyph unicode="&#x12c;" glyph-name="Ibreve" horiz-adv-x="254" d="M97 715H153V0H97V715ZM382 771Q356 771 334 780T295 805T268 844T256 893H300Q304 858 325 837T382 815Q417 815 440 836T468 893H511Q509 867 499 845T471 806T430 780T382 771Z" />
<glyph unicode="&#x12d;" glyph-name="ibreve" horiz-adv-x="225" d="M84 523H137V0H84V523ZM367 616Q316 616 282 649T245 737H289Q293 702 312 681T367 660Q402 660 423 681T450 737H492Q489 683 454 650T367 616Z" />
<glyph unicode="&#x12e;" glyph-name="Iogonek" horiz-adv-x="254" d="M124 -182Q80 -182 55 -162T30 -107Q30 -74 50 -48T97 -1V715H153V2Q121 -20 102 -44T82 -98Q82 -118 93 -130T131 -142Q158 -142 181 -132V-171Q170 -176 156 -179T124 -182Z" />
<glyph unicode="&#x12f;" glyph-name="iogonek" horiz-adv-x="225" d="M113 -182Q69 -182 45 -162T20 -107Q20 -73 39 -48T84 -2V523H137V2Q107 -21 89 -45T71 -98Q71 -118 83 -130T120 -142Q133 -142 146 -140T170 -132V-171Q159 -176 145 -179T113 -182ZM110
635Q94 635 83 646T72 673Q72 688 83 699T110 710Q126 710 136 699T147 673Q147 657 137 646T110 635Z" />
<glyph unicode="&#x130;" glyph-name="Idotaccent" horiz-adv-x="254" d="M97 715H153V0H97V715ZM382 787Q366 787 355 798T344 825Q344 840 355 851T382 862Q398 862 409 851T420 825Q420 809 409 798T382 787Z" />
<glyph unicode="&#x131;" glyph-name="dotlessi" horiz-adv-x="225" d="M84 523H137V0H84V523Z" />
<glyph unicode="&#x132;" glyph-name="IJ" horiz-adv-x="620" d="M97 715H153V0H97V715ZM351 -7Q313 -7 289 -1T251 13V60Q270 52 293 46T348 39Q408 39 442 72T477 183V715H533V181Q533 131 519 96T481 38T424 4T351 -7Z" />
<glyph unicode="&#x133;" glyph-name="ij" horiz-adv-x="225" d="M84 523H137V0H84V523ZM110 635Q94 635 83 646T72 673Q72 688 83 699T110 710Q126 710 136 699T147 673Q147 657 137 646T110 635ZM228 -143Q273 -139 289 -117T305 -52V523H358V-48Q358 -117 329
-151T228 -188V-143ZM331 635Q315 635 304 646T293 673Q293 688 304 699T331 710Q347 710 357 699T368 673Q368 657 358 646T331 635Z" />
<glyph unicode="&#x134;" glyph-name="Jcircumflex" horiz-adv-x="405" d="M137 -7Q99 -7 75 -1T37 13V60Q56 52 79 46T134 39Q194 39 228 72T263 183V715H319V181Q319 131 305 96T267 38T210 4T137 -7ZM266 893H316L424 771H382L290 849L197 771H156L266 893Z" />
<glyph unicode="&#x135;" glyph-name="jcircumflex" horiz-adv-x="225" d="M7 -143Q52 -139 68 -117T84 -52V523H137V-48Q137 -117 108 -151T7 -188V-143ZM344 740H394L502 605H460L368 695L275 605H234L344 740Z" />
<glyph unicode="&#x136;" glyph-name="Kcommaaccent" horiz-adv-x="603" d="M92 715H148V363L495 716H559L213 367L576 0H508L148 361V0H92V715ZM240 -188L298 -41L349 -56L274 -204L240 -188Z" />
<glyph unicode="&#x137;" glyph-name="kcommaaccent" horiz-adv-x="491" d="M82 773H135V277L390 523H453L198 279L470 0H404L135 277V0H82V773ZM183 -188L241 -41L292 -56L217 -204L183 -188Z" />
<glyph unicode="&#x139;" glyph-name="Lacute" horiz-adv-x="534" d="M92 715H148V46H495V0H92V715ZM416 893H482L394 771H352L416 893Z" />
<glyph unicode="&#x13a;" glyph-name="lacute" horiz-adv-x="226" d="M84 773H138V0H84V773ZM405 938H471L383 816H341L405 938Z" />
<glyph unicode="&#x13b;" glyph-name="Lcommaaccent" horiz-adv-x="534" d="M92 715H148V46H495V0H92V715ZM217 -188L275 -41L326 -56L251 -204L217 -188Z" />
<glyph unicode="&#x13c;" glyph-name="lcommaaccent" horiz-adv-x="226" d="M84 773H138V0H84V773ZM295 -188L353 -41L404 -56L329 -204L295 -188Z" />
<glyph unicode="&#x13d;" glyph-name="Lcaron" horiz-adv-x="534" d="M328 715H387L343 558H304L328 715ZM92 715H148V46H495V0H92V715Z" />
<glyph unicode="&#x13e;" glyph-name="lcaron" horiz-adv-x="226" d="M84 773H138V0H84V773ZM205 773H265L232 611H193L205 773Z" />
<glyph unicode="&#x13f;" glyph-name="Ldot" horiz-adv-x="534" d="M92 715H148V46H495V0H92V715ZM419 333Q402 333 390 345T377 376Q377 393 389 405T419 418Q437 418 449 406T462 376Q462 358 450 346T419 333Z" />
<glyph unicode="&#x140;" glyph-name="ldot" horiz-adv-x="283" d="M84 773H138V0H84V773ZM249 330Q232 330 220 342T207 373Q207 390 219 402T249 415Q267 415 279 403T292 373Q292 355 280 343T249 330Z" />
<glyph unicode="&#x141;" glyph-name="Lslash" horiz-adv-x="549" d="M34 304L107 331V715H163V351L385 434V389L163 306V46H510V0H107V286L34 259V304Z" />
<glyph unicode="&#x142;" glyph-name="lslash" horiz-adv-x="243" d="M16 378L93 426V773H146V460L227 511V465L146 414V0H93V380L16 332V378Z" />
<glyph unicode="&#x143;" glyph-name="Nacute" horiz-adv-x="717" d="M92 715H168L568 77V715H621V0H555L146 653V0H92V715ZM403 893H469L381 771H339L403 893Z" />
<glyph unicode="&#x144;" glyph-name="nacute" horiz-adv-x="587" d="M82 523H135V421Q144 442 161 462T201 497T255 522T320 531Q362 531 396 520T454 483T492 418T506 322V0H453V325Q453 409 416 447T308 485Q275 485 244 474T189 442T150 390T135 317V0H82V523ZM330
752H395L303 605H262L330 752Z" />
<glyph unicode="&#x145;" glyph-name="Ncommaaccent" horiz-adv-x="717" d="M92 715H168L568 77V715H621V0H555L146 653V0H92V715ZM274 -188L332 -41L383 -56L308 -204L274 -188Z" />
<glyph unicode="&#x146;" glyph-name="ncommaaccent" horiz-adv-x="587" d="M82 523H135V421Q144 442 161 462T201 497T255 522T320 531Q362 531 396 520T454 483T492 418T506 322V0H453V325Q453 409 416 447T308 485Q275 485 244 474T189 442T150 390T135 317V0H82V523ZM218
-188L276 -41L327 -56L252 -204L218 -188Z" />
<glyph unicode="&#x147;" glyph-name="Ncaron" horiz-adv-x="717" d="M92 715H168L568 77V715H621V0H555L146 653V0H92V715ZM232 893H274L367 816L461 893H502L391 771H341L232 893Z" />
<glyph unicode="&#x148;" glyph-name="ncaron" horiz-adv-x="587" d="M82 523H135V421Q144 442 161 462T201 497T255 522T320 531Q362 531 396 520T454 483T492 418T506 322V0H453V325Q453 409 416 447T308 485Q275 485 244 474T189 442T150 390T135 317V0H82V523ZM156
748H198L290 658L383 748H424L314 613H264L156 748Z" />
<glyph unicode="&#x149;" glyph-name="napostrophe" horiz-adv-x="594" d="M88 523H141V421Q150 442 167 462T207 497T261 522T326 531Q368 531 402 520T460 483T498 418T512 322V0H459V325Q459 409 422 447T314 485Q281 485 250 474T195 442T156 390T141 317V0H88V523ZM222
545L297 722L348 700L256 528L222 545Z" />
<glyph unicode="&#x14a;" glyph-name="Eng" horiz-adv-x="717" d="M439 -190Q401 -190 377 -184T339 -170V-123Q358 -131 381 -137T437 -144Q496 -144 530 -112T566 -5L146 653V0H92V715H168L568 90V715H621V2Q621 -49 608 -85T570 -145T512 -179T439 -190Z" />
<glyph unicode="&#x14b;" glyph-name="eng" horiz-adv-x="587" d="M366 -143Q414 -138 433 -115T453 -41V325Q453 409 416 447T308 485Q275 485 244 474T189 442T150 390T135 317V0H82V523H135V421Q144 442 161 462T201 497T255 522T320 531Q362 531 396 520T454
483T492 418T506 322V-37Q506 -113 474 -148T366 -188V-143Z" />
<glyph unicode="&#x14c;" glyph-name="Omacron" horiz-adv-x="805" d="M403 39Q467 39 520 63T611 129T670 229T691 356V364Q691 429 671 486T612 585T521 652T401 677Q335 677 282 653T190 587T131 487T110 362V354Q110 286 132 228T194 128T287 63T403 39ZM403
-8Q326 -8 262 20T152 97T79 212T53 353V361Q53 437 79 503T151 618T262 695T401 723Q477 723 540 695T650 619T723 504T749 363V355Q749 279 723 213T651 98T542 21T403 -8ZM276 833H524V791H276V833Z" />
<glyph unicode="&#x14d;" glyph-name="omacron" horiz-adv-x="595" d="M296 37Q338 37 374 52T436 96T478 165T493 257V265Q493 317 478 358T437 427T374 471T296 486Q254 486 218 471T155 427T113 357T98 265V257Q98 207 113 166T154 97T217 53T296 37ZM295 -8Q242
-8 196 11T116 66T63 150T43 257V265Q43 324 63 373T117 457T197 511T296 531Q349 531 395 512T475 458T528 375T548 266V258Q548 199 529 150T475 66T394 12T295 -8ZM174 689H416V647H174V689Z" />
<glyph unicode="&#x14e;" glyph-name="Obreve" horiz-adv-x="805" d="M403 39Q467 39 520 63T611 129T670 229T691 356V364Q691 429 671 486T612 585T521 652T401 677Q335 677 282 653T190 587T131 487T110 362V354Q110 286 132 228T194 128T287 63T403 39ZM403
-8Q326 -8 262 20T152 97T79 212T53 353V361Q53 437 79 503T151 618T262 695T401 723Q477 723 540 695T650 619T723 504T749 363V355Q749 279 723 213T651 98T542 21T403 -8ZM398 771Q372 771 350 780T311 805T284 844T272 893H316Q320 858 341 837T398 815Q433
815 456 836T484 893H527Q525 867 515 845T487 806T446 780T398 771Z" />
<glyph unicode="&#x14f;" glyph-name="obreve" horiz-adv-x="595" d="M296 37Q338 37 374 52T436 96T478 165T493 257V265Q493 317 478 358T437 427T374 471T296 486Q254 486 218 471T155 427T113 357T98 265V257Q98 207 113 166T154 97T217 53T296 37ZM295 -8Q242
-8 196 11T116 66T63 150T43 257V265Q43 324 63 373T117 457T197 511T296 531Q349 531 395 512T475 458T528 375T548 266V258Q548 199 529 150T475 66T394 12T295 -8ZM294 616Q243 616 209 649T172 737H216Q220 702 239 681T294 660Q329 660 350 681T377 737H419Q416
683 381 650T294 616Z" />
<glyph unicode="&#x150;" glyph-name="Ohungarumlaut" horiz-adv-x="805" d="M403 39Q467 39 520 63T611 129T670 229T691 356V364Q691 429 671 486T612 585T521 652T401 677Q335 677 282 653T190 587T131 487T110 362V354Q110 286 132 228T194 128T287 63T403
39ZM403 -8Q326 -8 262 20T152 97T79 212T53 353V361Q53 437 79 503T151 618T262 695T401 723Q477 723 540 695T650 619T723 504T749 363V355Q749 279 723 213T651 98T542 21T403 -8ZM355 893H415L350 771H310L355 893ZM487 893H547L482 771H442L487 893Z" />
<glyph unicode="&#x151;" glyph-name="ohungarumlaut" horiz-adv-x="595" d="M296 37Q338 37 374 52T436 96T478 165T493 257V265Q493 317 478 358T437 427T374 471T296 486Q254 486 218 471T155 427T113 357T98 265V257Q98 207 113 166T154 97T217 53T296 37ZM295
-8Q242 -8 196 11T116 66T63 150T43 257V265Q43 324 63 373T117 457T197 511T296 531Q349 531 395 512T475 458T528 375T548 266V258Q548 199 529 150T475 66T394 12T295 -8ZM258 752H318L249 605H209L258 752ZM390 752H450L381 605H341L390 752Z" />
<glyph unicode="&#x152;" glyph-name="OE" horiz-adv-x="960" d="M53 359Q53 433 74 498T140 611T251 687T411 715H893V669H553V390H826V344H553V46H911V0H409Q320 0 254 27T143 101T76 212T53 351V359ZM413 669Q336 669 280 646T185 582T129 484T110 359V351Q110
285 128 229T183 133T277 69T414 46H498V669H413Z" />
<glyph unicode="&#x153;" glyph-name="oe" horiz-adv-x="1007" d="M295 -8Q242 -8 196 11T116 66T63 150T43 257V265Q43 324 63 373T117 457T197 511T296 531Q374 531 433 491T520 380Q546 450 601 490T733 531Q780 531 821 516T894 469T943 389T961 276V257H547Q549
151 598 94T741 37Q806 37 848 64T904 146H957Q941 71 883 32T740 -8Q656 -8 600 32T519 143Q491 73 432 33T295 -8ZM296 37Q338 37 374 52T436 96T478 165T493 257V265Q493 317 478 358T437 427T374 471T296 486Q254 486 218 471T155 427T113 357T98 265V257Q98
207 113 166T154 97T217 53T296 37ZM907 300Q903 396 856 441T733 486Q695 486 663 473T607 436T568 378T549 300H907Z" />
<glyph unicode="&#x154;" glyph-name="Racute" horiz-adv-x="610" d="M92 715H288Q340 715 384 705T461 671T512 612T531 523V519Q531 474 517 441T479 386T420 350T346 330L573 0H511L287 326H148V0H92V715ZM291 371Q378 371 426 406T475 519V523Q475 564 462
592T425 637T367 661T291 669H148V371H291ZM330 893H396L308 771H266L330 893Z" />
<glyph unicode="&#x155;" glyph-name="racute" horiz-adv-x="352" d="M82 523H135V413Q157 461 198 494T312 530V480Q274 478 242 468T186 436T149 378T135 290V0H82V523ZM490 752H555L463 605H422L490 752Z" />
<glyph unicode="&#x156;" glyph-name="Rcommaaccent" horiz-adv-x="610" d="M92 715H288Q340 715 384 705T461 671T512 612T531 523V519Q531 474 517 441T479 386T420 350T346 330L573 0H511L287 326H148V0H92V715ZM291 371Q378 371 426 406T475 519V523Q475 564
462 592T425 637T367 661T291 669H148V371H291ZM232 -188L290 -41L341 -56L266 -204L232 -188Z" />
<glyph unicode="&#x157;" glyph-name="rcommaaccent" horiz-adv-x="352" d="M82 523H135V413Q157 461 198 494T312 530V480Q274 478 242 468T186 436T149 378T135 290V0H82V523ZM292 -188L350 -41L401 -56L326 -204L292 -188Z" />
<glyph unicode="&#x158;" glyph-name="Rcaron" horiz-adv-x="610" d="M92 715H288Q340 715 384 705T461 671T512 612T531 523V519Q531 474 517 441T479 386T420 350T346 330L573 0H511L287 326H148V0H92V715ZM291 371Q378 371 426 406T475 519V523Q475 564 462
592T425 637T367 661T291 669H148V371H291ZM159 893H201L294 816L388 893H429L318 771H268L159 893Z" />
<glyph unicode="&#x159;" glyph-name="rcaron" horiz-adv-x="352" d="M82 523H135V413Q157 461 198 494T312 530V480Q274 478 242 468T186 436T149 378T135 290V0H82V523ZM316 748H358L450 658L543 748H584L474 613H424L316 748Z" />
<glyph unicode="&#x15a;" glyph-name="Sacute" horiz-adv-x="606" d="M308 -8Q242 -8 194 9T114 55T65 122T42 205H97Q101 171 114 141T151 88T214 52T308 38Q350 38 384 49T442 81T480 130T493 191Q493 228 483 254T451 299T392 328T301 348Q183 365 127 408T70
536Q70 578 86 612T132 671T203 709T295 723Q395 723 454 676T525 543H474Q461 610 418 643T295 677Q212 677 167 641T122 540Q122 511 130 488T160 448T217 419T310 398Q370 389 414 375T488 338T532 280T547 195Q547 153 530 116T482 52T406 8T308 -8ZM330 893H396L308
771H266L330 893Z" />
<glyph unicode="&#x15b;" glyph-name="sacute" horiz-adv-x="469" d="M239 -9Q146 -9 95 36T38 156H89Q96 102 131 69T239 36Q305 36 338 63T372 139Q372 164 365 181T341 210T298 230T235 245Q187 254 153 265T97 293T65 333T55 391Q55 424 69 450T108 494T163
521T227 531Q262 531 293 524T348 499T388 455T409 389H358Q348 440 316 463T226 486Q171 486 138 461T104 393Q104 370 111 355T135 328T179 308T247 292Q289 284 321 275T376 249T411 207T423 143Q423 77 376 34T239 -9ZM272 752H337L245 605H204L272 752Z" />
<glyph unicode="&#x15c;" glyph-name="Scircumflex" horiz-adv-x="606" d="M308 -8Q242 -8 194 9T114 55T65 122T42 205H97Q101 171 114 141T151 88T214 52T308 38Q350 38 384 49T442 81T480 130T493 191Q493 228 483 254T451 299T392 328T301 348Q183 365 127
408T70 536Q70 578 86 612T132 671T203 709T295 723Q395 723 454 676T525 543H474Q461 610 418 643T295 677Q212 677 167 641T122 540Q122 511 130 488T160 448T217 419T310 398Q370 389 414 375T488 338T532 280T547 195Q547 153 530 116T482 52T406 8T308 -8ZM270
893H320L428 771H386L294 849L201 771H160L270 893Z" />
<glyph unicode="&#x15d;" glyph-name="scircumflex" horiz-adv-x="469" d="M239 -9Q146 -9 95 36T38 156H89Q96 102 131 69T239 36Q305 36 338 63T372 139Q372 164 365 181T341 210T298 230T235 245Q187 254 153 265T97 293T65 333T55 391Q55 424 69 450T108 494T163
521T227 531Q262 531 293 524T348 499T388 455T409 389H358Q348 440 316 463T226 486Q171 486 138 461T104 393Q104 370 111 355T135 328T179 308T247 292Q289 284 321 275T376 249T411 207T423 143Q423 77 376 34T239 -9ZM208 740H258L366 605H324L232 695L139
605H98L208 740Z" />
<glyph unicode="&#x15e;" glyph-name="Scedilla" horiz-adv-x="606" d="M277 -212Q236 -212 211 -191T181 -134H225Q228 -151 240 -163T275 -176Q298 -176 311 -164T325 -132Q325 -110 311 -102T280 -93Q267 -93 258 -96T244 -101L218 -80L260 -5Q206 1 167 19T102
66T62 129T42 205H97Q101 171 114 141T151 88T214 52T308 38Q350 38 384 49T442 81T480 130T493 191Q493 228 483 254T451 299T392 328T301 348Q183 365 127 408T70 536Q70 578 86 612T132 671T203 709T295 723Q395 723 454 676T525 543H474Q461 610 418 643T295
677Q212 677 167 641T122 540Q122 511 130 488T160 448T217 419T310 398Q370 389 414 375T488 338T532 280T547 195Q547 153 530 116T482 52T406 8T308 -8H301L271 -61Q289 -57 307 -59T340 -71T363 -95T372 -134Q372 -172 344 -192T277 -212Z" />
<glyph unicode="&#x15f;" glyph-name="scedilla" horiz-adv-x="469" d="M218 -212Q177 -212 152 -191T122 -134H166Q169 -151 181 -163T216 -176Q239 -176 252 -164T266 -132Q266 -110 252 -102T221 -93Q208 -93 199 -96T185 -101L159 -80L200 -6Q125 3 84 46T38
156H89Q96 102 131 69T239 36Q305 36 338 63T372 139Q372 164 365 181T341 210T298 230T235 245Q187 254 153 265T97 293T65 333T55 391Q55 424 69 450T108 494T163 521T227 531Q262 531 293 524T348 499T388 455T409 389H358Q348 440 316 463T226 486Q171 486
138 461T104 393Q104 370 111 355T135 328T179 308T247 292Q289 284 321 275T376 249T411 207T423 143Q423 77 377 35T242 -9L212 -61Q230 -57 248 -59T281 -71T304 -95T313 -134Q313 -172 285 -192T218 -212Z" />
<glyph unicode="&#x160;" glyph-name="Scaron" horiz-adv-x="606" d="M308 -8Q242 -8 194 9T114 55T65 122T42 205H97Q101 171 114 141T151 88T214 52T308 38Q350 38 384 49T442 81T480 130T493 191Q493 228 483 254T451 299T392 328T301 348Q183 365 127 408T70
536Q70 578 86 612T132 671T203 709T295 723Q395 723 454 676T525 543H474Q461 610 418 643T295 677Q212 677 167 641T122 540Q122 511 130 488T160 448T217 419T310 398Q370 389 414 375T488 338T532 280T547 195Q547 153 530 116T482 52T406 8T308 -8ZM158 893H200L293
816L387 893H428L317 771H267L158 893Z" />
<glyph unicode="&#x161;" glyph-name="scaron" horiz-adv-x="469" d="M239 -9Q146 -9 95 36T38 156H89Q96 102 131 69T239 36Q305 36 338 63T372 139Q372 164 365 181T341 210T298 230T235 245Q187 254 153 265T97 293T65 333T55 391Q55 424 69 450T108 494T163
521T227 531Q262 531 293 524T348 499T388 455T409 389H358Q348 440 316 463T226 486Q171 486 138 461T104 393Q104 370 111 355T135 328T179 308T247 292Q289 284 321 275T376 249T411 207T423 143Q423 77 376 34T239 -9ZM98 748H140L232 658L325 748H366L256
613H206L98 748Z" />
<glyph unicode="&#x162;" glyph-name="Tcommaaccent" horiz-adv-x="563" d="M252 669H30V715H529V669H307V0H252V669ZM207 -188L265 -41L316 -56L241 -204L207 -188Z" />
<glyph unicode="&#x163;" glyph-name="tcommaaccent" horiz-adv-x="342" d="M230 -7Q167 -7 135 28T102 126V478H25V523H102V642H155V523H292V478H155V130Q155 82 176 60T233 38Q253 38 269 41T299 49V4Q286 -1 270 -4T230 -7ZM369 -188L427 -41L478 -56L403 -204L369
-188Z" />
<glyph unicode="&#x164;" glyph-name="Tcaron" horiz-adv-x="563" d="M252 669H30V715H529V669H307V0H252V669ZM144 893H186L279 816L373 893H414L303 771H253L144 893Z" />
<glyph unicode="&#x165;" glyph-name="tcaron" horiz-adv-x="342" d="M230 -7Q167 -7 135 28T102 126V478H25V523H102V642H155V523H292V478H155V130Q155 82 176 60T233 38Q253 38 269 41T299 49V4Q286 -1 270 -4T230 -7ZM256 773H316L283 611H244L256 773Z" />
<glyph unicode="&#x166;" glyph-name="Tbar" horiz-adv-x="563" d="M100 408H252V669H30V715H529V669H307V408H460V365H307V0H252V365H100V408Z" />
<glyph unicode="&#x167;" glyph-name="tbar" horiz-adv-x="342" d="M25 341H102V478H25V523H102V642H155V523H292V478H155V341H292V302H155V130Q155 82 176 60T233 38Q253 38 269 41T299 49V4Q286 -1 270 -4T230 -7Q167 -7 135 28T102 126V302H25V341Z" />
<glyph unicode="&#x168;" glyph-name="Utilde" horiz-adv-x="686" d="M338 -7Q217 -7 150 60T82 256V715H137V262Q137 147 188 94T339 40Q442 40 493 94T545 275V715H601V267Q601 139 536 66T338 -7ZM403 774Q385 774 369 782T337 800T307 818T280 827Q263 827
251 813T234 773H193Q199 821 223 846T280 872Q298 872 314 864T345 846T375 828T403 819Q420 819 432 833T449 873H489Q483 825 459 800T403 774Z" />
<glyph unicode="&#x169;" glyph-name="utilde" horiz-adv-x="583" d="M261 -8Q220 -8 187 3T129 38T91 100T77 192V523H130V195Q130 111 167 75T273 38Q305 38 335 48T390 80T429 132T444 205V523H497V0H444V100Q435 79 418 60T378 25T325 1T261 -8ZM351 616Q333
616 317 624T285 642T255 660T227 669Q211 669 199 655T182 616H141Q147 664 171 689T228 715Q246 715 262 707T294 689T323 671T351 662Q367 662 380 675T397 715H437Q431 667 407 642T351 616Z" />
<glyph unicode="&#x16a;" glyph-name="Umacron" horiz-adv-x="686" d="M338 -7Q217 -7 150 60T82 256V715H137V262Q137 147 188 94T339 40Q442 40 493 94T545 275V715H601V267Q601 139 536 66T338 -7ZM217 833H465V791H217V833Z" />
<glyph unicode="&#x16b;" glyph-name="umacron" horiz-adv-x="583" d="M261 -8Q220 -8 187 3T129 38T91 100T77 192V523H130V195Q130 111 167 75T273 38Q305 38 335 48T390 80T429 132T444 205V523H497V0H444V100Q435 79 418 60T378 25T325 1T261 -8ZM168 689H410V647H168V689Z"
/>
<glyph unicode="&#x16c;" glyph-name="Ubreve" horiz-adv-x="686" d="M338 -7Q217 -7 150 60T82 256V715H137V262Q137 147 188 94T339 40Q442 40 493 94T545 275V715H601V267Q601 139 536 66T338 -7ZM339 771Q313 771 291 780T252 805T225 844T213 893H257Q261
858 282 837T339 815Q374 815 397 836T425 893H468Q466 867 456 845T428 806T387 780T339 771Z" />
<glyph unicode="&#x16d;" glyph-name="ubreve" horiz-adv-x="583" d="M261 -8Q220 -8 187 3T129 38T91 100T77 192V523H130V195Q130 111 167 75T273 38Q305 38 335 48T390 80T429 132T444 205V523H497V0H444V100Q435 79 418 60T378 25T325 1T261 -8ZM288 616Q237
616 203 649T166 737H210Q214 702 233 681T288 660Q323 660 344 681T371 737H413Q410 683 375 650T288 616Z" />
<glyph unicode="&#x16e;" glyph-name="Uring" horiz-adv-x="686" d="M338 -7Q217 -7 150 60T82 256V715H137V262Q137 147 188 94T339 40Q442 40 493 94T545 275V715H601V267Q601 139 536 66T338 -7ZM341 763Q367 763 384 781T402 827Q402 854 385 872T341 891Q315
891 298 873T280 827Q280 800 297 782T341 763ZM341 731Q321 731 304 738T273 759T251 790T243 827Q243 846 251 863T272 894T303 914T341 922Q361 922 379 915T410 894T431 864T439 827Q439 807 432 790T411 760T379 739T341 731Z" />
<glyph unicode="&#x16f;" glyph-name="uring" horiz-adv-x="583" d="M261 -8Q220 -8 187 3T129 38T91 100T77 192V523H130V195Q130 111 167 75T273 38Q305 38 335 48T390 80T429 132T444 205V523H497V0H444V100Q435 79 418 60T378 25T325 1T261 -8ZM288 874Q314
874 331 892T349 937Q349 965 332 983T288 1001Q262 1001 245 983T227 937Q227 910 244 892T288 874ZM288 842Q268 842 251 849T220 870T198 900T190 937Q190 956 198 973T219 1004T250 1025T288 1033Q308 1033 326 1026T357 1005T378 974T386 937Q386 917 379
900T358 870T326 850T288 842Z" />
<glyph unicode="&#x170;" glyph-name="Uhungarumlaut" horiz-adv-x="686" d="M338 -7Q217 -7 150 60T82 256V715H137V262Q137 147 188 94T339 40Q442 40 493 94T545 275V715H601V267Q601 139 536 66T338 -7ZM296 893H356L291 771H251L296 893ZM428 893H488L423
771H383L428 893Z" />
<glyph unicode="&#x171;" glyph-name="uhungarumlaut" horiz-adv-x="583" d="M261 -8Q220 -8 187 3T129 38T91 100T77 192V523H130V195Q130 111 167 75T273 38Q305 38 335 48T390 80T429 132T444 205V523H497V0H444V100Q435 79 418 60T378 25T325 1T261 -8ZM252
752H312L243 605H203L252 752ZM384 752H444L375 605H335L384 752Z" />
<glyph unicode="&#x172;" glyph-name="Uogonek" horiz-adv-x="686" d="M381 -182Q337 -182 313 -162T288 -107Q288 -76 308 -50T359 -6Q354 -6 349 -6T338 -7Q217 -7 150 60T82 256V715H137V262Q137 147 188 94T339 40Q442 40 493 94T545 275V715H601V267Q601
173 567 109T465 17Q439 6 416 -6T376 -31T349 -61T339 -98Q339 -118 351 -130T388 -142Q401 -142 414 -140T438 -132V-171Q427 -176 413 -179T381 -182Z" />
<glyph unicode="&#x173;" glyph-name="uogonek" horiz-adv-x="583" d="M460 -182Q416 -182 392 -162T367 -107Q367 -73 390 -45T444 0V100Q435 79 418 60T378 25T325 1T261 -8Q220 -8 187 3T129 38T91 100T77 192V523H130V195Q130 111 167 75T273 38Q305 38 335
48T390 80T429 132T444 205V523H497V3Q457 -23 437 -47T417 -98Q417 -118 429 -130T467 -142Q480 -142 493 -140T517 -132V-171Q506 -176 492 -179T460 -182Z" />
<glyph unicode="&#x174;" glyph-name="Wcircumflex" horiz-adv-x="924" d="M33 715H89L253 85L442 715H481L663 83L836 715H887L691 0H637L461 616L275 0H222L33 715ZM435 893H485L593 771H551L459 849L366 771H325L435 893Z" />
<glyph unicode="&#x175;" glyph-name="wcircumflex" horiz-adv-x="780" d="M29 523H86L226 65L369 523H414L552 65L693 523H747L582 0H521L391 438L252 0H192L29 523ZM364 740H414L522 605H480L388 695L295 605H254L364 740Z" />
<glyph unicode="&#x176;" glyph-name="Ycircumflex" horiz-adv-x="582" d="M268 318L23 715H85L297 365L499 715H555L324 317V0H268V318ZM268 893H318L426 771H384L292 849L199 771H158L268 893Z" />
<glyph unicode="&#x177;" glyph-name="ycircumflex" d="M232 45L25 523H82L261 106L428 523H482L192 -182H137L232 45ZM231 740H281L389 605H347L255 695L162 605H121L231 740Z" />
<glyph unicode="&#x178;" glyph-name="Ydieresis" horiz-adv-x="582" d="M268 318L23 715H85L297 365L499 715H555L324 317V0H268V318ZM202 788Q186 788 176 799T165 825Q165 839 175 850T202 861Q217 861 227 850T238 825Q238 810 228 799T202 788ZM382 788Q367
788 357 799T346 825Q346 839 356 850T382 861Q397 861 407 850T418 825Q418 810 408 799T382 788Z" />
<glyph unicode="&#x179;" glyph-name="Zacute" horiz-adv-x="591" d="M27 11L470 669H63V715H548V705L111 48H542V0H27V11ZM333 893H399L311 771H269L333 893Z" />
<glyph unicode="&#x17a;" glyph-name="zacute" horiz-adv-x="478" d="M24 9L364 478H54V523H447V513L110 47H440V0H24V9ZM285 752H350L258 605H217L285 752Z" />
<glyph unicode="&#x17b;" glyph-name="Zdotaccent" horiz-adv-x="591" d="M27 11L470 669H63V715H548V705L111 48H542V0H27V11ZM296 787Q280 787 269 798T258 825Q258 840 269 851T296 862Q312 862 323 851T334 825Q334 809 323 798T296 787Z" />
<glyph unicode="&#x17c;" glyph-name="zdotaccent" horiz-adv-x="478" d="M24 9L364 478H54V523H447V513L110 47H440V0H24V9ZM245 635Q229 635 218 646T207 673Q207 688 218 699T245 710Q261 710 272 699T283 673Q283 657 272 646T245 635Z" />
<glyph unicode="&#x17d;" glyph-name="Zcaron" horiz-adv-x="591" d="M27 11L470 669H63V715H548V705L111 48H542V0H27V11ZM161 893H203L296 816L390 893H431L320 771H270L161 893Z" />
<glyph unicode="&#x17e;" glyph-name="zcaron" horiz-adv-x="478" d="M24 9L364 478H54V523H447V513L110 47H440V0H24V9ZM111 748H153L245 658L338 748H379L269 613H219L111 748Z" />
<glyph unicode="&#x192;" glyph-name="florin" horiz-adv-x="388" d="M29 403H124L149 566Q161 650 203 687T310 724Q333 724 348 721T378 713V667Q367 672 351 675T311 679Q266 679 238 652T201 564L176 403H321V359H170L87 -182H34L117 359H29V403Z" />
<glyph unicode="&#x1fa;" glyph-name="Aringacute" horiz-adv-x="658" d="M290 715H364L621 0H565L486 219H164L86 0H33L290 715ZM180 264H470L325 669L180 264ZM326 1038Q352 1038 369 1056T387 1102Q387 1129 370 1147T326 1166Q300 1166 283 1148T265 1102Q265
1075 282 1057T326 1038ZM326 1006Q306 1006 289 1013T258 1034T236 1065T228 1102Q228 1121 236 1138T257 1169T288 1189T326 1197Q346 1197 364 1190T395 1169T416 1139T424 1102Q424 1082 417 1065T396 1035T364 1014T326 1006ZM365 1091H431L343 969H301L365
1091Z" />
<glyph unicode="&#x1fb;" glyph-name="aringacute" horiz-adv-x="533" d="M221 -8Q182 -8 150 1T94 29T57 76T44 141Q44 186 64 216T118 265T196 291T289 299H398V346Q398 420 367 453T266 486Q206 486 167 460T119 375H67Q71 416 89 445T135 494T196 522T268
531Q309 531 342 521T400 489T437 431T451 346V0H398V80Q373 42 330 17T221 -8ZM225 35Q261 35 292 45T347 73T384 115T398 169V258H291Q250 258 215 253T153 235T112 199T97 141Q97 90 128 63T225 35ZM269 880Q295 880 312 898T330 943Q330 971 313 989T269 1007Q243
1007 226 989T208 943Q208 916 225 898T269 880ZM269 848Q249 848 232 855T201 876T179 906T171 943Q171 962 179 979T200 1010T231 1031T269 1039Q289 1039 307 1032T338 1011T359 980T367 943Q367 923 360 906T339 876T307 856T269 848ZM311 951H377L289 829H247L311
951Z" />
<glyph unicode="&#x1fc;" glyph-name="AEacute" horiz-adv-x="950" d="M392 715H883V669H528V390H816V344H528V46H901V0H472V220H196L86 0H29L392 715ZM218 264H472V669H421L218 264ZM644 893H710L622 771H580L644 893Z" />
<glyph unicode="&#x1fd;" glyph-name="aeacute" horiz-adv-x="901" d="M638 -8Q563 -8 510 27T429 123Q403 57 349 25T221 -8Q182 -8 150 1T94 28T57 75T44 140Q44 186 64 216T117 265T195 291T287 299H400V345Q400 419 368 452T266 486Q206 486 167 460T119 375H67Q71
416 89 445T135 494T197 522T268 531Q333 531 377 505T439 417Q468 471 517 501T632 531Q678 531 718 516T789 469T837 389T855 276V258H452Q454 152 500 95T639 37Q703 37 744 64T798 146H851Q835 71 778 32T638 -8ZM226 35Q262 35 293 45T348 74T386 120T400
181V258H288Q247 258 212 253T152 235T112 198T97 140Q97 89 128 62T226 35ZM801 299Q797 396 752 441T632 486Q557 486 509 436T453 299H801ZM493 752H558L466 605H425L493 752Z" />
<glyph unicode="&#x1fe;" glyph-name="Oslashacute" horiz-adv-x="805" d="M41 5L138 112Q97 160 75 221T53 353V361Q53 437 79 503T151 618T262 695T401 723Q466 723 521 703T622 645L707 739L736 709L652 617Q698 568 723 503T749 363V355Q749 279 723 213T651
98T542 21T403 -8Q332 -8 272 16T167 82L71 -24L41 5ZM403 39Q467 39 520 63T611 129T670 229T691 356V364Q691 429 672 483T618 580L201 119Q240 81 291 60T403 39ZM110 354Q110 293 126 242T173 151L589 609Q553 641 506 659T401 677Q335 677 282 653T190 587T131
487T110 362V354ZM437 893H503L415 771H373L437 893Z" />
<glyph unicode="&#x1ff;" glyph-name="oslashacute" horiz-adv-x="595" d="M31 0L103 80Q74 115 59 159T43 257V265Q43 324 63 373T117 457T197 511T296 531Q343 531 384 516T458 473L522 545L551 520L485 447Q514 412 531 367T548 266V258Q548 199 529 150T475
66T394 12T295 -8Q247 -8 205 7T130 52L61 -25L31 0ZM296 37Q338 37 374 52T436 96T478 165T493 257V265Q493 309 482 345T451 409L162 88Q216 37 296 37ZM98 257Q98 174 137 118L425 437Q373 486 296 486Q254 486 218 471T155 427T113 357T98 265V257ZM334 752H399L307
605H266L334 752Z" />
<glyph unicode="&#x218;" glyph-name="Scommaaccent" horiz-adv-x="606" d="M308 -8Q242 -8 194 9T114 55T65 122T42 205H97Q101 171 114 141T151 88T214 52T308 38Q350 38 384 49T442 81T480 130T493 191Q493 228 483 254T451 299T392 328T301 348Q183 365 127
408T70 536Q70 578 86 612T132 671T203 709T295 723Q395 723 454 676T525 543H474Q461 610 418 643T295 677Q212 677 167 641T122 540Q122 511 130 488T160 448T217 419T310 398Q370 389 414 375T488 338T532 280T547 195Q547 153 530 116T482 52T406 8T308 -8ZM220
-188L278 -41L329 -56L254 -204L220 -188Z" />
<glyph unicode="&#x219;" glyph-name="scommaaccent" horiz-adv-x="469" d="M239 -9Q146 -9 95 36T38 156H89Q96 102 131 69T239 36Q305 36 338 63T372 139Q372 164 365 181T341 210T298 230T235 245Q187 254 153 265T97 293T65 333T55 391Q55 424 69 450T108
494T163 521T227 531Q262 531 293 524T348 499T388 455T409 389H358Q348 440 316 463T226 486Q171 486 138 461T104 393Q104 370 111 355T135 328T179 308T247 292Q289 284 321 275T376 249T411 207T423 143Q423 77 376 34T239 -9ZM161 -188L219 -41L270 -56L195
-204L161 -188Z" />
<glyph unicode="&#x21a;" glyph-name="uni021A" horiz-adv-x="563" d="M252 669H30V715H529V669H307V0H252V669ZM207 -188L265 -41L316 -56L241 -204L207 -188Z" />
<glyph unicode="&#x21b;" glyph-name="uni021B" horiz-adv-x="342" d="M230 -7Q167 -7 135 28T102 126V478H25V523H102V642H155V523H292V478H155V130Q155 82 176 60T233 38Q253 38 269 41T299 49V4Q286 -1 270 -4T230 -7ZM369 -188L427 -41L478 -56L403 -204L369 -188Z" />
<glyph unicode="&#x237;" glyph-name="uni0237" horiz-adv-x="225" d="M7 -143Q52 -139 68 -117T84 -52V523H137V-48Q137 -117 108 -151T7 -188V-143Z" />
<glyph unicode="&#x2c6;" glyph-name="circumflex" horiz-adv-x="404" d="M176 740H226L334 605H292L200 695L107 605H66L176 740Z" />
<glyph unicode="&#x2c7;" glyph-name="caron" horiz-adv-x="404" d="M66 748H108L200 658L293 748H334L224 613H174L66 748Z" />
<glyph unicode="&#x2d8;" glyph-name="breve" horiz-adv-x="404" d="M199 616Q148 616 114 649T77 737H121Q125 702 144 681T199 660Q234 660 255 681T282 737H324Q321 683 286 650T199 616Z" />
<glyph unicode="&#x2d9;" glyph-name="dotaccent" horiz-adv-x="404" d="M200 635Q184 635 173 646T162 673Q162 688 173 699T200 710Q216 710 227 699T238 673Q238 657 227 646T200 635Z" />
<glyph unicode="&#x2da;" glyph-name="ring" horiz-adv-x="404" d="M200 633Q226 633 243 651T261 696Q261 724 244 742T200 760Q174 760 157 742T139 696Q139 669 156 651T200 633ZM200 601Q180 601 163 608T132 629T110 659T102 696Q102 715 110 732T131 763T162
784T200 792Q220 792 238 785T269 764T290 733T298 696Q298 676 291 659T270 629T238 609T200 601Z" />
<glyph unicode="&#x2db;" glyph-name="ogonek" horiz-adv-x="404" d="M217 -182Q173 -182 149 -162T124 -107Q124 -72 147 -45T203 0H251Q214 -24 195 -47T175 -98Q175 -118 187 -130T224 -142Q237 -142 250 -140T274 -132V-171Q263 -176 249 -179T217 -182Z" />
<glyph unicode="&#x2dc;" glyph-name="tilde" horiz-adv-x="404" d="M264 616Q246 616 230 624T198 642T168 660T140 669Q124 669 112 655T95 616H54Q60 664 84 689T141 715Q159 715 175 707T207 689T236 671T264 662Q280 662 293 675T310 715H350Q344 667 320
642T264 616Z" />
<glyph unicode="&#x2dd;" glyph-name="hungarumlaut" horiz-adv-x="404" d="M161 752H221L152 605H112L161 752ZM293 752H353L284 605H244L293 752Z" />
</font>
</defs>
</svg>
